<?xml version="1.0" standalone="no"?>
<!DOCTYPE svg PUBLIC "-//W3C//DTD SVG 1.1//EN" "http://www.w3.org/Graphics/SVG/1.1/DTD/svg11.dtd" >
<svg xmlns="http://www.w3.org/2000/svg">
<metadata>
This is a custom SVG webfont generated by Font Squirrel.
Copyright   : Copyright c by Binnenland 2007 All rights reserved This software may not be reproduced used displayed modified disclosed or transferred without the express written approval of Binnenland 
Designer    : Binnenland Michael Mischler  Niklaus Thoenen
Foundry URL : wwwbinnenlandch
</metadata>
<defs>
<font id="RelevantMedium" horiz-adv-x="1101" >
<font-face units-per-em="2048" ascent="1536" descent="-512" />
<missing-glyph horiz-adv-x="530" />
<glyph unicode=" "  horiz-adv-x="530" />
<glyph unicode="&#x09;" horiz-adv-x="530" />
<glyph unicode="&#xa0;" horiz-adv-x="530" />
<glyph unicode="!" horiz-adv-x="552" d="M166 0v231h221v-231h-221zM174 1380h205l-29 -1009h-149z" />
<glyph unicode="&#x22;" horiz-adv-x="796" d="M164 895v485h176v-485h-176zM457 895v485h176v-485h-176z" />
<glyph unicode="#" horiz-adv-x="1439" d="M113 432v176h268l74 209h-279v176h342l139 387h179l-138 -387h222l139 387h178l-137 -387h225v-176h-289l-73 -209h299v-176h-361l-153 -432h-183l154 432h-219l-154 -432h-182l153 432h-204zM561 608h221l74 209h-221z" />
<glyph unicode="$" horiz-adv-x="1191" d="M66 420h210q10 -100 75 -172t188 -84v465q-111 25 -152 39q-115 41 -194.5 129t-79.5 215q0 168 117.5 272.5t308.5 118.5v156h125v-158q383 -33 423 -414h-208q-20 199 -215 227v-409q131 -31 161 -41q281 -94 281 -383q0 -170 -120 -278.5t-322 -125.5v-161h-125v159 q-123 8 -216.5 51.5t-144.5 111t-78.5 137t-33.5 145.5zM315 1024q0 -119 162 -174q27 -12 62 -19v383q-102 -10 -163 -59t-61 -131zM664 166q111 16 174 71.5t63 143.5q0 86 -40 131t-120 72l-77 20v-438z" />
<glyph unicode="%" horiz-adv-x="1533" d="M70 1006q0 94 20.5 177t87 151.5t172.5 68.5q145 0 211 -117t66 -280q0 -96 -20.5 -177t-86 -148t-170.5 -67q-150 0 -215 113t-65 279zM223 1004q0 -47 3 -80t14.5 -76t39 -65.5t70.5 -22.5q68 0 95.5 60.5t27.5 183.5q0 254 -123 253q-127 1 -127 -253zM330 0l704 1389 h160l-702 -1389h-162zM907 367q0 94 20.5 177t87 151.5t173.5 68.5q145 0 210.5 -117t65.5 -280q0 -96 -20.5 -177t-86 -148t-169.5 -67q-150 0 -215.5 113t-65.5 279zM1061 365q0 -47 3 -80t14.5 -76t39 -65.5t70.5 -22.5q68 0 95.5 60.5t27.5 183.5q0 254 -123 253 q-127 1 -127 -253z" />
<glyph unicode="&#x26;" horiz-adv-x="1298" d="M115 385q0 209 254 356q-51 61 -83 103.5t-60.5 105t-28.5 117.5q0 141 100 239.5t264 98.5q156 0 258.5 -93t102.5 -239q0 -117 -72 -202t-195 -169l275 -299q63 137 63 351h187q0 -301 -119 -494l239 -260h-249l-111 117q-160 -137 -369 -137q-221 0 -338.5 115.5 t-117.5 289.5zM313 387q0 -96 65.5 -161.5t192.5 -65.5q131 0 244 92l-326 356q-92 -55 -134 -103t-42 -118zM395 1067q0 -35 22.5 -78t41 -66.5t65.5 -74.5q10 -10 15 -17q88 47 139 100.5t51 135.5q0 74 -47 116t-121 42q-76 0 -121 -45t-45 -113z" />
<glyph unicode="'" horiz-adv-x="501" d="M164 895v485h174v-485h-174z" />
<glyph unicode="(" horiz-adv-x="567" d="M78 579.5q0 155.5 28.5 305t68.5 254t80 185.5t69 122l28 39h205q-12 -16 -31.5 -45t-71 -124t-90 -194.5t-70.5 -248t-32 -294t31 -292t74 -252t86 -190.5t73 -128l31 -43h-205l-29 41q-19 27 -66.5 118t-83.5 188.5t-65.5 250t-29.5 308z" />
<glyph unicode=")" horiz-adv-x="567" d="M10 -326q12 16 31.5 45t70 124.5t89.5 194.5t70.5 247.5t31.5 294t-29.5 292t-72.5 252t-87 190.5t-73 128l-31 43h203l30 -41q19 -27 66 -118t84 -189.5t66.5 -250t29.5 -307t-28.5 -306t-68.5 -254t-81 -185.5t-69 -121l-29 -39h-203z" />
<glyph unicode="*" horiz-adv-x="1081" d="M125 1139l53 145l281 -102l-2 293h157l2 -291l279 100l61 -145l-282 -103l170 -233l-125 -101l-180 259l-170 -254l-138 92l168 237z" />
<glyph unicode="+" horiz-adv-x="1148" d="M76 465v184h403v404h191v-404h399v-184h-399v-404h-191v404h-403z" />
<glyph unicode="," horiz-adv-x="538" d="M131 -147q106 0 107 133v14h-82v240h225v-236q0 -131 -69.5 -195.5t-180.5 -64.5v109z" />
<glyph unicode="-" horiz-adv-x="946" d="M152 467v176h645v-176h-645z" />
<glyph unicode="." horiz-adv-x="542" d="M158 0v240h227v-240h-227z" />
<glyph unicode="/" horiz-adv-x="913" d="M25 -49l680 1470h186l-680 -1470h-186z" />
<glyph unicode="0" d="M74 676q0 96 11 187t44 190.5t84 172t138 120t202 47.5q133 0 230.5 -63.5t148.5 -171t73.5 -226.5t22.5 -256q0 -98 -11 -187.5t-43 -186.5t-83 -166.5t-138 -116t-200 -46.5q-135 0 -232.5 60.5t-149.5 165t-74.5 222.5t-22.5 255zM270 674q0 -61 2 -106.5t10.5 -112 t28 -112.5t48 -91t78.5 -68.5t116 -23.5q152 0 215 129t63 385q0 532 -278 532q-283 0 -283 -532z" />
<glyph unicode="1" d="M184 944v211l346 215h162v-1194h262v-176h-759v176h301v950z" />
<glyph unicode="2" d="M90 1014q16 170 134 275.5t304 105.5q203 0 315.5 -117t112.5 -295q0 -125 -74.5 -251t-176.5 -220l-357 -328v-2h621v-182h-848v188q305 274 465 449q170 186 170 342q0 106 -56.5 167.5t-171.5 61.5q-100 0 -165.5 -51t-73.5 -143h-199z" />
<glyph unicode="3" d="M96 334h203q23 -84 88.5 -128t153.5 -44q115 0 187.5 69.5t72.5 184.5q0 100 -65.5 162.5t-176.5 62.5l-139 2v162l115 2q104 0 168.5 55.5t64.5 147.5q0 100 -59.5 149t-161.5 49q-172 0 -209 -145h-201q25 154 137.5 243t272.5 89q188 0 304 -99.5t116 -289.5 q0 -160 -146 -275q178 -111 178 -311q0 -207 -130 -326t-328 -119q-176 0 -292 95.5t-153 263.5z" />
<glyph unicode="4" d="M63 303v170l564 897h225v-889h199v-178h-199v-303h-197v303h-592zM260 481h395v635z" />
<glyph unicode="5" d="M86 305h205q29 -70 93.5 -107.5t137.5 -37.5q121 0 189.5 82t68.5 221q0 145 -64.5 223t-187.5 78q-174 0 -229 -137h-176l78 743h694v-186h-541l-35 -303q98 70 230 69q199 0 314.5 -133t115.5 -350t-126 -355.5t-331 -138.5q-154 0 -273.5 86t-162.5 246z" />
<glyph unicode="6" d="M92 600q0 365 125 579t365 214q162 0 264 -87t135 -239h-195q-39 139 -200 139q-121 0 -195 -108.5t-94 -309.5q115 119 283 119q190 0 309 -132t119 -326q0 -211 -124 -342.5t-325 -131.5q-225 0 -346 176.5t-121 448.5zM307 442q0 -113 71 -196.5t181 -83.5 q113 0 181.5 73.5t68.5 206.5q0 125 -65.5 202t-184.5 77q-96 0 -174 -67t-78 -212z" />
<glyph unicode="7" d="M86 1184v186h918v-172l-553 -1198h-218l562 1184h-709z" />
<glyph unicode="8" d="M92 389q0 102 49 188.5t142 137.5q-160 115 -160 291q0 186 118.5 286.5t309.5 100.5q188 0 307 -100.5t119 -286.5q0 -176 -160 -291q92 -55 142.5 -140.5t50.5 -185.5q0 -201 -130 -308.5t-329 -107.5q-201 0 -330 107.5t-129 308.5zM291 391q0 -113 72.5 -172 t189.5 -59q115 0 186.5 59.5t71.5 171.5q0 106 -66.5 169t-191.5 63q-129 0 -195.5 -63t-66.5 -169zM319 1001q0 -92 63.5 -149t168.5 -57q102 0 165.5 57t63.5 149q0 100 -63.5 152.5t-165.5 52.5q-106 0 -169 -52.5t-63 -152.5z" />
<glyph unicode="9" d="M92 920q0 211 124 342t325 131q225 0 346 -176.5t121 -448.5q0 -365 -125 -579t-365 -214q-162 0 -264 87.5t-135 238.5h194q39 -139 201 -139q121 0 194.5 108.5t94.5 309.5q-115 -119 -283 -119q-190 0 -309 132t-119 327zM291 926q0 -125 65.5 -202t184.5 -77 q96 0 174 66.5t78 212.5q0 113 -71 196.5t-181 83.5q-113 0 -181.5 -73.5t-68.5 -206.5z" />
<glyph unicode=":" horiz-adv-x="583" d="M178 0v240h228v-240h-228zM178 752v239h228v-239h-228z" />
<glyph unicode=";" horiz-adv-x="559" d="M152 -147q106 0 106 133v14h-82v240h225v-236q0 -131 -69.5 -195.5t-179.5 -64.5v109zM176 752v239h225v-239h-225z" />
<glyph unicode="&#x3c;" horiz-adv-x="1067" d="M84 473v170l899 379v-188l-661 -281l661 -289v-188z" />
<glyph unicode="=" horiz-adv-x="1265" d="M182 276v183h901v-183h-901zM182 643v182h901v-182h-901z" />
<glyph unicode="&#x3e;" horiz-adv-x="1067" d="M84 76v188l664 291l-664 279v188l899 -379v-170z" />
<glyph unicode="?" horiz-adv-x="940" d="M57 1014q14 168 129 272.5t273 104.5q180 0 287.5 -106.5t107.5 -285.5q0 -119 -102 -251q-27 -33 -79 -91l-71 -77q-82 -94 -82 -179v-49h-178v60q0 135 125 270q98 100 139 162q55 82 56 153q0 96 -55.5 153.5t-149.5 57.5q-82 0 -140.5 -55t-64.5 -139h-195zM326 0 v231h219v-231h-219z" />
<glyph unicode="@" horiz-adv-x="1966" d="M63 489q0 379 269.5 648.5t650.5 269.5q377 0 640 -234.5t263 -564.5q0 -301 -148.5 -467t-351.5 -166q-180 0 -225 142q-125 -139 -317 -140q-166 0 -249 116t-83 284q0 246 143.5 433t374.5 187q131 0 203 -86l14 72h195l-144 -729q-8 -49 16.5 -88t76.5 -39 q137 0 231 126t94 355q0 262 -212 446.5t-521 184.5q-311 0 -529 -219t-218 -531q0 -315 215 -532t532 -217q260 0 459 160h244q-276 -324 -703 -324q-188 0 -359 71.5t-293 193.5t-195 291t-73 357zM700 352q0 -197 179 -196q127 0 219 133t92 350q0 184 -174 184 q-137 0 -226.5 -138t-89.5 -333z" />
<glyph unicode="A" horiz-adv-x="1236" d="M-2 0l524 1380h195l522 -1380h-207l-129 344h-571l-127 -344h-207zM403 532h428l-215 574z" />
<glyph unicode="B" horiz-adv-x="1308" d="M158 0v1380h596q211 0 314 -108.5t103 -263.5q0 -186 -159 -289q190 -98 190 -309q0 -160 -105.5 -285t-312.5 -125h-626zM360 190h422q111 0 163 66t52 154q0 84 -52 147.5t-163 63.5h-422v-431zM360 807h414q100 0 147.5 60.5t47.5 140.5q0 182 -217 182h-392v-383z " />
<glyph unicode="C" horiz-adv-x="1284" d="M84 692q0 332 152.5 522.5t431.5 190.5q229 0 373.5 -122t177.5 -318h-211q-27 117 -114 183t-226 66q-188 0 -283.5 -134t-95.5 -388q0 -526 377 -526q274 0 344 260h211q-33 -203 -177.5 -327t-377.5 -124q-281 0 -431.5 191.5t-150.5 525.5z" />
<glyph unicode="D" horiz-adv-x="1333" d="M158 0v1380h506q281 0 433 -186t152 -481q0 -332 -152.5 -522.5t-437.5 -190.5h-501zM360 190h308q377 0 376 519q0 223 -97 352t-283 129h-304v-1000z" />
<glyph unicode="E" horiz-adv-x="1191" d="M158 0v1380h944v-190h-742v-391h611v-191h-611v-418h742v-190h-944z" />
<glyph unicode="F" horiz-adv-x="1128" d="M158 0v1380h921v-190h-719v-391h594v-191h-594v-608h-202z" />
<glyph unicode="G" horiz-adv-x="1327" d="M84 692q0 332 153.5 522.5t438.5 190.5q225 0 369.5 -124t173.5 -316h-207q-27 115 -114 182t-222 67q-387 0 -387 -522q0 -256 99 -392t292 -136q170 0 257 101.5t87 254.5v51h-430v189h633v-242q0 -236 -150.5 -390.5t-400.5 -154.5q-285 0 -438.5 192.5t-153.5 526.5z " />
<glyph unicode="H" horiz-adv-x="1331" d="M158 0v1380h202v-581h611v581h203v-1380h-203v608h-611v-608h-202z" />
<glyph unicode="I" horiz-adv-x="518" d="M158 0v1380h202v-1380h-202z" />
<glyph unicode="J" horiz-adv-x="927" d="M-16 369h202q4 -82 55.5 -143.5t139.5 -61.5q94 0 145.5 59.5t51.5 157.5v999h202v-999q0 -172 -102.5 -289t-296.5 -117q-186 0 -287.5 114t-109.5 280z" />
<glyph unicode="K" horiz-adv-x="1193" d="M158 0v1380h202v-630l572 630h258l-510 -553l559 -827h-248l-448 678l-183 -199v-479h-202z" />
<glyph unicode="L" horiz-adv-x="1073" d="M158 0v1380h202v-1190h711v-190h-913z" />
<glyph unicode="M" horiz-adv-x="1576" d="M158 0v1380h225l405 -1001l406 1001h225v-1380h-202v969l-347 -828h-163l-347 828v-969h-202z" />
<glyph unicode="N" horiz-adv-x="1312" d="M158 0v1380h202l592 -1011v1011h203v-1380h-203l-592 1016v-1016h-202z" />
<glyph unicode="O" horiz-adv-x="1333" d="M84 700q0 326 153.5 515.5t428.5 189.5q281 0 432 -198.5t151 -499.5q0 -336 -150.5 -535t-432.5 -199q-281 0 -431.5 196.5t-150.5 530.5zM289 700q0 -260 94 -398t281 -138q190 0 285 139t95 399q0 231 -96 371.5t-284 140.5q-184 0 -279.5 -133t-95.5 -381z" />
<glyph unicode="P" horiz-adv-x="1232" d="M158 0v1380h569q211 0 323.5 -128t112.5 -287q0 -154 -112.5 -281t-323.5 -127h-367v-557h-202zM360 748h367q113 0 172 68.5t59 148.5q0 84 -59 154.5t-172 70.5h-367v-442z" />
<glyph unicode="Q" horiz-adv-x="1333" d="M84 700q0 326 153.5 515.5t428.5 189.5q281 0 432 -198.5t151 -499.5q0 -311 -128 -505t-371 -220v-19q0 -90 28.5 -123t85.5 -33h166v-167q-82 -10 -147 -11q-182 0 -258 84t-76 273q-227 37 -346 226t-119 488zM289 700q0 -260 94 -397t281 -137q381 0 380 536 q0 231 -96 371.5t-284 140.5q-184 0 -279.5 -133t-95.5 -381z" />
<glyph unicode="R" horiz-adv-x="1292" d="M158 0v1380h569q211 0 323.5 -128t112.5 -287q0 -121 -73.5 -232.5t-212.5 -154.5l360 -578h-231l-344 557h-302v-557h-202zM360 748h367q113 0 172 68.5t59 148.5q0 84 -59 154.5t-172 70.5h-367v-442z" />
<glyph unicode="S" horiz-adv-x="1191" d="M66 420h210q12 -111 88 -184.5t222 -73.5q143 0 229 58.5t86 160.5q0 86 -40 131t-120 72q-35 12 -168 38.5t-186 45.5q-115 41 -194.5 129t-79.5 215q0 182 135 287.5t348 105.5q135 0 232.5 -38t149.5 -103.5t76.5 -132t32.5 -144.5h-208q-20 231 -283 232 q-127 0 -204 -51.5t-77 -143.5q0 -119 162 -174q47 -16 167 -41t181 -45q281 -94 281 -383q0 -184 -142.5 -296t-375.5 -112q-111 0 -200 29t-145.5 73t-95 105.5t-57 120t-24.5 119.5z" />
<glyph unicode="T" horiz-adv-x="1089" d="M43 1190v190h1006v-190h-400v-1190h-203v1190h-403z" />
<glyph unicode="U" horiz-adv-x="1312" d="M145 518v862h203v-856q0 -358 305 -358q311 0 312 358v856h202v-862q0 -274 -141 -409.5t-373 -135.5q-229 0 -368.5 133t-139.5 412z" />
<glyph unicode="V" horiz-adv-x="1130" d="M2 1380h205l356 -1071l361 1071h204l-464 -1380h-195z" />
<glyph unicode="W" horiz-adv-x="1652" d="M6 1380h211l248 -1018l272 1018h178l275 -1015l248 1015h209l-357 -1380h-186l-277 1049l-284 -1049h-181z" />
<glyph unicode="X" horiz-adv-x="1056" d="M-16 0l432 705l-420 675h229l310 -503l296 503h232l-412 -684l428 -696h-229l-320 520l-317 -520h-229z" />
<glyph unicode="Y" horiz-adv-x="1114" d="M2 1380h229l326 -616l330 616h225l-453 -825v-555h-202v555z" />
<glyph unicode="Z" horiz-adv-x="1120" d="M78 0v174l719 1016h-686v190h925v-176l-719 -1014h719v-190h-958z" />
<glyph unicode="[" horiz-adv-x="604" d="M170 -328v1813h448v-158h-270v-1497h270v-158h-448z" />
<glyph unicode="\" horiz-adv-x="913" d="M43 1380h186l637 -1380h-186z" />
<glyph unicode="]" horiz-adv-x="604" d="M-16 -172h270v1499h-270v158h450v-1813h-450v156z" />
<glyph unicode="^" horiz-adv-x="989" d="M80 682l342 780h160l327 -780h-182l-229 543l-236 -543h-182z" />
<glyph unicode="_" horiz-adv-x="919" d="M-10 -129h940v-158h-940v158z" />
<glyph unicode="`" horiz-adv-x="718" d="M68 1380h241l205 -264h-190z" />
<glyph unicode="a" horiz-adv-x="1075" d="M72 512q0 211 112.5 352.5t300.5 141.5q145 0 238 -93v78h188v-768q0 -66 78 -65h31v-156q-33 -8 -78 -8q-141 0 -188 112q-98 -121 -265 -120q-193 0 -305 145t-112 381zM262 508q0 -168 61.5 -258t180.5 -90q229 0 229 336q0 338 -229 338q-115 0 -178.5 -89.5 t-63.5 -236.5z" />
<glyph unicode="b" horiz-adv-x="1060" d="M141 0v1380h189v-477q92 102 245 103q193 0 303.5 -139.5t110.5 -354.5q0 -238 -111.5 -381t-302.5 -143q-150 0 -245 106v-94h-189zM322 496q0 -334 239 -334q117 0 177.5 89t60.5 257q0 150 -61.5 238t-176.5 88q-239 0 -239 -338z" />
<glyph unicode="c" horiz-adv-x="980" d="M72 496q0 240 118.5 375t319.5 135q168 0 274.5 -92.5t130.5 -241.5h-192q-37 160 -213 159q-119 0 -183.5 -83.5t-64.5 -251.5q0 -332 248 -332q86 0 141.5 42t71.5 116h192q-29 -156 -137 -245t-268 -89q-203 0 -320.5 135t-117.5 373z" />
<glyph unicode="d" horiz-adv-x="1060" d="M72 512q0 215 110.5 354.5t302.5 139.5q150 0 246 -103v477h189v-1380h-189v94q-100 -106 -246 -106q-193 0 -303 142t-110 382zM262 508q0 -346 240 -346q238 0 237 334q0 338 -237 338q-117 0 -178.5 -88t-61.5 -238z" />
<glyph unicode="e" horiz-adv-x="1009" d="M74 496q0 240 118.5 375t315.5 135q209 0 318.5 -139.5t109.5 -362.5v-21q0 -10 -1 -19t-2 -16.5t-1 -11.5v-4h-666q18 -270 244 -270q164 0 211 139h192q-90 -313 -403 -313q-207 0 -321.5 133t-114.5 375zM268 594h471q-6 109 -63.5 174.5t-169.5 65.5q-96 0 -163 -67 t-75 -173z" />
<glyph unicode="f" horiz-adv-x="669" d="M55 819v172h162v96q0 170 69.5 241t219.5 71l108 -10v-164h-106q-55 0 -78.5 -27t-23.5 -92v-115h202v-172h-202v-819h-189v819h-162z" />
<glyph unicode="g" horiz-adv-x="1062" d="M72 512q0 215 107.5 354.5t299.5 139.5q156 0 254 -105v90h189v-919q0 -221 -108.5 -335t-317.5 -114q-143 0 -247 80t-149 221h193q57 -129 203 -129q127 0 182 63.5t55 213.5v45q-102 -117 -254 -117q-193 0 -300 139.5t-107 372.5zM262 512q0 -336 236 -336 q238 0 237 324q0 334 -237 334q-117 0 -176.5 -86t-59.5 -236z" />
<glyph unicode="h" horiz-adv-x="1060" d="M141 0v1380h189v-477q98 102 258 103q164 0 253 -104.5t89 -276.5v-625h-189v610q0 111 -54 168.5t-134 57.5q-223 0 -223 -297v-539h-189z" />
<glyph unicode="i" horiz-adv-x="481" d="M145 1145v235h191v-235h-191zM147 0v991h189v-991h-189z" />
<glyph unicode="j" horiz-adv-x="479" d="M-23 -205h54q57 0 85.5 17.5t28.5 68.5v1110h189v-1100q0 -266 -268 -266l-89 10v160zM143 1145v235h191v-235h-191z" />
<glyph unicode="k" horiz-adv-x="976" d="M141 0v1380h189v-802l385 413h233l-370 -401l407 -590h-233l-308 457l-114 -119v-338h-189z" />
<glyph unicode="l" horiz-adv-x="518" d="M137 262v1118h189v-1124q0 -55 22.5 -73.5t71.5 -18.5h55v-160q-41 -10 -92 -10q-113 0 -179.5 56t-66.5 212z" />
<glyph unicode="m" horiz-adv-x="1558" d="M141 0v991h189v-88q96 102 239 103q190 0 260 -140q94 139 289 140q158 0 233.5 -101.5t75.5 -277.5v-627h-188v610q0 225 -160 226q-201 0 -200 -328v-508h-189v610q0 225 -160 226q-201 0 -200 -297v-539h-189z" />
<glyph unicode="n" horiz-adv-x="1060" d="M141 0v991h189v-86q100 100 260 101q164 0 252 -104.5t88 -276.5v-625h-189v610q0 98 -49 162t-139 64q-223 0 -223 -297v-539h-189z" />
<glyph unicode="o" horiz-adv-x="1017" d="M72 504q0 231 120.5 366.5t317.5 135.5q201 0 318.5 -140.5t117.5 -361.5q0 -242 -116.5 -379t-319.5 -137q-207 0 -322.5 137t-115.5 379zM262 502q0 -340 248 -340q246 0 246 340q0 156 -62.5 244t-183.5 88q-117 0 -182.5 -84t-65.5 -248z" />
<glyph unicode="p" horiz-adv-x="1062" d="M141 -362v1353h189v-94q96 109 250 109q190 0 300.5 -140.5t110.5 -368t-110.5 -368.5t-300.5 -141q-152 0 -250 110v-460h-189zM324 502q0 -336 241 -336q117 0 176.5 88t59.5 248q0 158 -59.5 246t-176.5 88q-241 0 -241 -334z" />
<glyph unicode="q" horiz-adv-x="1062" d="M72 498q0 227 110.5 367.5t300.5 140.5q152 0 250 -109v94h189v-1356h-189v463q-100 -111 -250 -110q-190 0 -300.5 142.5t-110.5 367.5zM262 498q0 -160 60.5 -249t179.5 -89q238 0 237.5 335.5t-237.5 335.5q-119 0 -179.5 -87.5t-60.5 -245.5z" />
<glyph unicode="r" horiz-adv-x="679" d="M141 0v991h189v-137q96 152 245 152l91 -11v-188h-62q-131 0 -202.5 -74t-71.5 -252v-481h-189z" />
<glyph unicode="s" horiz-adv-x="925" d="M72 309h190q10 -154 201 -153q94 0 147.5 33.5t53.5 86.5q0 84 -82 109q-31 10 -128.5 30.5t-152.5 37.5q-90 27 -147.5 92t-57.5 160q0 127 89 214t272 87q176 0 275 -89.5t108 -234.5h-191q-14 160 -198 160q-82 0 -125 -37t-43 -86q0 -72 94 -98q45 -14 135 -34 t129 -32q209 -66 209 -270q0 -131 -104.5 -214t-284.5 -83q-190 0 -286.5 88t-102.5 233z" />
<glyph unicode="t" horiz-adv-x="692" d="M53 819v172h158v389h188v-389h213v-172h-213v-536q0 -68 23.5 -93.5t79.5 -25.5h104v-166q-55 -6 -108 -6q-150 0 -218.5 69.5t-68.5 241.5v516h-158z" />
<glyph unicode="u" horiz-adv-x="1060" d="M131 991h188v-608q0 -111 54.5 -168t134.5 -57q223 0 223 313v520h189v-991h-189v90q-98 -102 -258 -102q-164 0 -252 103.5t-88 277.5z" />
<glyph unicode="v" horiz-adv-x="911" d="M10 991h207l238 -733l241 733h205l-350 -991h-191z" />
<glyph unicode="w" horiz-adv-x="1370" d="M25 991h206l172 -678l199 678h166l199 -678l174 678h205l-291 -991h-166l-205 680l-203 -680h-166z" />
<glyph unicode="x" horiz-adv-x="925" d="M6 0l348 514l-317 477h221l207 -315l217 315h219l-330 -475l349 -516h-220l-235 358l-244 -358h-215z" />
<glyph unicode="y" horiz-adv-x="911" d="M10 991h207l240 -727l239 727h205l-418 -1190q-59 -174 -260 -174l-78 6v166l78 2q70 0 99 82l40 115z" />
<glyph unicode="z" horiz-adv-x="931" d="M76 0v162l547 659h-514v170h747v-157l-541 -660h531v-174h-770z" />
<glyph unicode="{" horiz-adv-x="581" d="M49 528v123q55 2 80 29t25 88v324q0 178 109.5 292.5t307.5 114.5v-147q-121 0 -175 -75t-54 -190v-317q0 -47 -20.5 -103.5t-53.5 -78.5q74 -33 74 -178v-324q0 -115 54.5 -189.5t174.5 -74.5v-150q-199 0 -308 116t-109 294v330q0 61 -25 87.5t-80 28.5z" />
<glyph unicode="|" horiz-adv-x="501" d="M162 -158v1659h178v-1659h-178z" />
<glyph unicode="}" horiz-adv-x="581" d="M10 -178q121 0 174.5 74.5t53.5 189.5v324q0 145 73 178q-31 23 -52 79t-21 103v317q0 115 -53.5 190t-174.5 75v147q199 0 308.5 -114.5t109.5 -292.5v-324q0 -61 24.5 -88t77.5 -29v-123q-53 -2 -77.5 -28.5t-24.5 -87.5v-330q0 -178 -110.5 -294t-307.5 -116v150z" />
<glyph unicode="~" horiz-adv-x="1046" d="M80 420q16 109 92 179.5t176 70.5q57 0 186.5 -47.5t172.5 -47.5q37 0 60.5 25t27.5 68h170q-12 -109 -83 -182.5t-177 -73.5q-57 0 -186.5 47t-170.5 47q-78 0 -92 -86h-176z" />
<glyph unicode="&#xa1;" horiz-adv-x="557" d="M172 760v231h221v-231h-221zM180 -391l29 1009h149l27 -1009h-205z" />
<glyph unicode="&#xa2;" horiz-adv-x="985" d="M76 495.5q0 221.5 97 353.5t273 152v154h136v-156q137 -18 224 -104t112 -219h-191q-35 119 -145 147v-651q111 25 145 156h188q-29 -145 -114.5 -232.5t-218.5 -103.5v-156h-136v154q-176 20 -273 152t-97 353.5zM264 496q0 -289 182 -326v657q-182 -40 -182 -331z" />
<glyph unicode="&#xa3;" horiz-adv-x="1013" d="M43 0v186q55 0 79.5 27t24.5 90v696q0 176 110 292t298 116q172 0 276.5 -106.5t120.5 -276.5h-198q-23 195 -199 195q-102 0 -155.5 -59.5t-53.5 -164.5v-200h389v-187h-389v-284q0 -94 -37 -138h631v-186h-897z" />
<glyph unicode="&#xa5;" horiz-adv-x="1095" d="M-8 1380h225l326 -616l329 616h230l-248 -446h143v-186h-245l-68 -123h313v-185h-350v-440h-203v440h-348v185h310l-68 123h-242v186h140z" />
<glyph unicode="&#xa6;" horiz-adv-x="493" d="M145 -158v725h181v-725h-181zM145 776v725h181v-725h-181z" />
<glyph unicode="&#xa7;" horiz-adv-x="1009" d="M90 639q0 180 154 258q-98 84 -99 209q0 127 89.5 214t271.5 87q176 0 275.5 -89t107.5 -235h-191q-14 160 -198 160q-82 0 -125 -37t-43 -86q0 -86 94 -121l285 -108q209 -78 209 -281q0 -162 -154 -245q119 -84 119 -242q0 -131 -104.5 -214t-284.5 -83 q-190 0 -286.5 88t-103.5 233h191q10 -154 201 -153q94 0 146 37t54 90q4 84 -82 123q-43 20 -321 129q-88 35 -146.5 103.5t-58.5 162.5zM276 653q6 -76 95 -112l235 -101q59 16 93 65.5t34 96.5q0 90 -82 119q-20 8 -69 25l-96 34l-89 33q-66 -16 -95.5 -62.5t-25.5 -97.5 z" />
<glyph unicode="&#xa8;" horiz-adv-x="899" d="M176 1159v221h178v-221h-178zM545 1159v221h180v-221h-180z" />
<glyph unicode="&#xa9;" horiz-adv-x="1685" d="M86 688q0 297 211 507t508 210t508 -210t211 -507t-211 -507t-508 -210t-508 210t-211 507zM223 688q0 -242 170 -413t412 -171t413 171t171 413t-171 413t-413 171t-412 -171t-170 -413zM465 690.5q0 192.5 92 300t256 107.5q139 0 225 -81t111 -216h-164 q-29 141 -172 141q-184 0 -184 -252t184 -252q141 0 170 150h164q-23 -143 -108 -224t-226 -81q-164 0 -256 107.5t-92 300z" />
<glyph unicode="&#xaa;" horiz-adv-x="864" d="M90 1051q0 152 81 250t222 98q78 0 133 -43v33h160v-523q0 -35 41 -35h45v-139q-31 -8 -80 -8q-96 0 -131 61q-74 -68 -168 -67q-139 0 -221 101.5t-82 271.5zM250 1049q0 -217 149 -218q139 0 140 211q0 207 -140 207q-70 0 -109.5 -55t-39.5 -145z" />
<glyph unicode="&#xab;" horiz-adv-x="1130" d="M90 475v162l481 301v-186l-313 -199l313 -201v-184zM557 475v162l483 301v-186l-315 -199l315 -201v-184z" />
<glyph unicode="&#xac;" horiz-adv-x="1148" d="M86 457v186h975v-500h-189v314h-786z" />
<glyph unicode="&#xad;" horiz-adv-x="946" d="M152 467v176h645v-176h-645z" />
<glyph unicode="&#xae;" horiz-adv-x="1622" d="M86 688q0 297 211 507t508 210t508 -210t211 -507t-211 -507t-508 -210t-508 210t-211 507zM223 688q0 -242 170 -413t412 -171t413 171t171 413t-171 413t-413 171t-412 -171t-170 -413zM549 307v780h315q123 0 192.5 -75.5t69.5 -169.5q0 -59 -36.5 -123t-98.5 -96 l166 -316h-174l-147 289h-131v-289h-156zM705 743h159q53 0 78 29t25 70q0 37 -26 66.5t-77 29.5h-159v-195z" />
<glyph unicode="&#xaf;" horiz-adv-x="815" d="M115 1208v172h590v-172h-590z" />
<glyph unicode="&#xb0;" horiz-adv-x="761" d="M86 1094q0 123 87 210t210 87q125 0 211 -87t86 -210t-86 -210t-211 -87q-123 0 -210 87t-87 210zM238 1094q0 -61 43 -104.5t102 -43.5t102 43t43 105q0 59 -43 102t-102 43t-102 -43t-43 -102z" />
<glyph unicode="&#xb1;" horiz-adv-x="1148" d="M84 0v174h979v-174h-979zM84 518v187h395v284h191v-284h393v-187h-393v-262h-191v262h-395z" />
<glyph unicode="&#xb2;" horiz-adv-x="690" d="M92 1399q10 109 79 176t175 67q117 0 181.5 -67.5t64.5 -171.5q0 -123 -139 -262l-148 -137h293v-140h-487v129q150 137 249 244q82 88 82 164q0 100 -96 100q-43 0 -72.5 -26.5t-33.5 -75.5h-148z" />
<glyph unicode="&#xb3;" horiz-adv-x="690" d="M78 1085h153q18 -90 109 -90q49 0 80 30t31 79q0 43 -27 69.5t-74 26.5h-100v125h90q43 0 69.5 25.5t26.5 64.5q0 86 -96 86q-72 0 -90 -76h-150q14 100 81 158.5t159 58.5q111 0 176.5 -59t65.5 -172q0 -45 -23.5 -84t-56.5 -59q39 -23 68.5 -68t29.5 -94 q0 -117 -73.5 -184.5t-186.5 -67.5q-104 0 -171.5 61t-90.5 170z" />
<glyph unicode="&#xb4;" horiz-adv-x="718" d="M211 1116l203 264h243l-258 -264h-188z" />
<glyph unicode="&#xb5;" horiz-adv-x="1056" d="M152 -389v1366h188v-600q0 -109 52 -164t132 -55q98 0 154.5 66.5t56.5 199.5v553h189v-977h-189v76q-94 -90 -221 -90q-111 0 -174 63v-438h-188z" />
<glyph unicode="&#x3bc;" horiz-adv-x="1056" d="M152 -389v1366h188v-600q0 -109 52 -164t132 -55q98 0 154.5 66.5t56.5 199.5v553h189v-977h-189v76q-94 -90 -221 -90q-111 0 -174 63v-438h-188z" />
<glyph unicode="&#xb6;" horiz-adv-x="1404" d="M55 985q0 164 115 279.5t279 115.5h880v-192h-244v-1188h-204v1188h-242v-1188h-211v592q-156 6 -264.5 120.5t-108.5 272.5z" />
<glyph unicode="&#xb7;" horiz-adv-x="557" d="M166 500v245h233v-245h-233z" />
<glyph unicode="&#xb8;" horiz-adv-x="512" d="M41 -373l190 264h175l-130 -264h-235z" />
<glyph unicode="&#xb9;" horiz-adv-x="458" d="M31 1339v160l200 127h111v-764h-143v576z" />
<glyph unicode="&#xba;" horiz-adv-x="802" d="M92 1044q0 164 85 259.5t224 95.5q145 0 227.5 -99.5t82.5 -255.5q0 -172 -82 -268t-228 -96q-143 0 -226 96t-83 268zM252 1042q0 -102 39 -157.5t110.5 -55.5t111.5 55.5t40 157.5q0 94 -40 149.5t-112 55.5q-70 0 -109.5 -53.5t-39.5 -151.5z" />
<glyph unicode="&#xbb;" horiz-adv-x="1130" d="M88 168v184l313 203l-313 197v186l483 -301v-162zM557 168v184l313 203l-313 197v186l483 -301v-162z" />
<glyph unicode="&#xbc;" horiz-adv-x="1484" d="M31 1077v160l200 127h111v-764h-143v576zM256 0l705 1389h159l-702 -1389h-162zM840 158v112l313 492h145v-467h111v-137h-111v-160h-141v160h-317zM997 295h160v250z" />
<glyph unicode="&#xbd;" horiz-adv-x="1542" d="M31 1077v160l200 127h111v-764h-143v576zM256 0l705 1389h159l-702 -1389h-162zM944 535q10 109 79 176t175 67q117 0 181.5 -67.5t64.5 -171.5q0 -123 -139 -263l-148 -137h293v-139h-487v129q150 137 249 244q82 88 82 164q0 100 -96 100q-43 0 -72.5 -26.5 t-33.5 -75.5h-148z" />
<glyph unicode="&#xbe;" horiz-adv-x="1669" d="M78 838h153q18 -90 109 -90q49 0 80 29.5t31 78.5q0 45 -27 70.5t-74 25.5h-100v125h90q43 0 69.5 25.5t26.5 64.5q0 86 -96 86q-72 0 -90 -75h-150q14 100 81 158.5t159 58.5q111 0 176.5 -59.5t65.5 -172.5q0 -45 -23.5 -84t-56.5 -59q39 -23 68.5 -69t29.5 -93 q0 -117 -73.5 -184.5t-186.5 -67.5q-104 0 -171.5 61.5t-90.5 170.5zM440 0l705 1389h160l-703 -1389h-162zM1024 158v112l313 492h146v-467h110v-137h-110v-160h-142v160h-317zM1182 295h159v250z" />
<glyph unicode="&#xbf;" horiz-adv-x="931" d="M43 -12q0 88 52 177t113.5 149.5t114 132t52.5 128.5v48h178v-60q0 -133 -125 -268q-129 -143 -160 -201q-33 -57 -32 -108q0 -100 56 -157.5t152 -57.5q84 0 138.5 59t60.5 147h195q-12 -172 -121 -281.5t-273 -109.5q-180 0 -290.5 110t-110.5 292zM350 743v234h221 v-234h-221z" />
<glyph unicode="&#xc0;" horiz-adv-x="1236" d="M-2 0l524 1380h195l522 -1380h-207l-129 344h-571l-127 -344h-207zM303 1784h242l205 -264h-191zM403 532h428l-215 574z" />
<glyph unicode="&#xc1;" horiz-adv-x="1236" d="M-2 0l524 1380h195l522 -1380h-207l-129 344h-571l-127 -344h-207zM403 532h428l-215 574zM492 1520l202 264h244l-258 -264h-188z" />
<glyph unicode="&#xc2;" horiz-adv-x="1236" d="M-2 0l524 1380h195l522 -1380h-207l-129 344h-571l-127 -344h-207zM301 1520l219 270h197l219 -270h-188l-132 143l-127 -143h-188zM403 532h428l-215 574z" />
<glyph unicode="&#xc3;" horiz-adv-x="1236" d="M-2 0l524 1380h195l522 -1380h-207l-129 344h-571l-127 -344h-207zM262 1561q51 231 225 231q51 0 137.5 -42t112.5 -42q53 0 72 84h152q-16 -106 -71.5 -171t-150.5 -65q-55 0 -143 42t-113 42q-53 0 -69 -79h-152zM403 532h428l-215 574z" />
<glyph unicode="&#xc4;" horiz-adv-x="1236" d="M-2 0l524 1380h195l522 -1380h-207l-129 344h-571l-127 -344h-207zM344 1569v221h178v-221h-178zM403 532h428l-215 574zM713 1569v221h180v-221h-180z" />
<glyph unicode="&#xc5;" horiz-adv-x="1236" d="M-2 0l524 1380h195l522 -1380h-207l-129 344h-571l-127 -344h-207zM403 532h428l-215 574zM408 1665q0 84 60 144.5t146 60.5q88 0 148.5 -60.5t60.5 -144.5q0 -86 -60.5 -146.5t-148.5 -60.5q-86 0 -146 60.5t-60 146.5zM516 1665q0 -41 29.5 -70.5t68.5 -29.5 q41 0 71 29.5t30 70.5q0 39 -30 68.5t-71 29.5q-39 0 -68.5 -29.5t-29.5 -68.5z" />
<glyph unicode="&#xc6;" horiz-adv-x="1660" d="M-10 0l524 1380h1057v-190h-643v-391h526v-191h-526v-420h643v-188h-846v340h-403l-125 -340h-207zM393 528h332v662h-86z" />
<glyph unicode="&#xc7;" horiz-adv-x="1288" d="M84 692q0 332 152.5 522.5t431.5 190.5q229 0 373.5 -122t177.5 -318h-211q-27 117 -114 183t-226 66q-188 0 -283.5 -134t-95.5 -388q0 -526 377 -526q274 0 344 260h211q-33 -203 -177.5 -327t-377.5 -124q-281 0 -431.5 191.5t-150.5 525.5zM408 -373l190 264h174 l-129 -264h-235z" />
<glyph unicode="&#xc8;" horiz-adv-x="1165" d="M162 0v1380h944v-190h-741v-391h610v-191h-610v-418h741v-190h-944zM317 1784h242l205 -264h-191z" />
<glyph unicode="&#xc9;" horiz-adv-x="1165" d="M162 0v1380h944v-190h-741v-391h610v-191h-610v-418h741v-190h-944zM426 1526l203 264h243l-258 -264h-188z" />
<glyph unicode="&#xca;" horiz-adv-x="1165" d="M162 0v1380h944v-190h-741v-391h610v-191h-610v-418h741v-190h-944zM297 1520l219 270h197l219 -270h-189l-131 143l-127 -143h-188z" />
<glyph unicode="&#xcb;" horiz-adv-x="1165" d="M162 0v1380h944v-190h-741v-391h610v-191h-610v-418h741v-190h-944zM332 1569v221h178v-221h-178zM700 1569v221h181v-221h-181z" />
<glyph unicode="&#xcc;" horiz-adv-x="518" d="M-18 1784h241l205 -264h-190zM164 0v1380h203v-1380h-203z" />
<glyph unicode="&#xcd;" horiz-adv-x="518" d="M109 1520l202 264h244l-258 -264h-188zM164 0v1380h203v-1380h-203z" />
<glyph unicode="&#xce;" horiz-adv-x="518" d="M-51 1520l219 270h197l219 -270h-189l-131 143l-127 -143h-188zM164 0v1380h203v-1380h-203z" />
<glyph unicode="&#xcf;" horiz-adv-x="518" d="M-14 1569v221h178v-221h-178zM164 0v1380h203v-1380h-203zM354 1569v221h181v-221h-181z" />
<glyph unicode="&#xd0;" horiz-adv-x="1435" d="M68 614v172h192v594h506q281 0 433.5 -186t152.5 -481q0 -332 -152.5 -522.5t-437.5 -190.5h-502v614h-192zM463 190h307q377 0 377 519q0 223 -97.5 352t-283.5 129h-303v-404h233v-172h-233v-424z" />
<glyph unicode="&#xd1;" horiz-adv-x="1320" d="M162 0v1380h203l591 -1011v1011h203v-1380h-203l-591 1016v-1016h-203zM313 1561q51 231 226 231q51 0 137 -42t112 -42q53 0 72 84h152q-16 -106 -71.5 -171t-149.5 -65q-55 0 -143.5 42t-112.5 42q-53 0 -70 -79h-152z" />
<glyph unicode="&#xd2;" horiz-adv-x="1333" d="M84 700q0 326 153.5 515.5t428.5 189.5q281 0 432 -198.5t151 -499.5q0 -336 -150.5 -535t-432.5 -199q-281 0 -431.5 196.5t-150.5 530.5zM289 700q0 -260 94 -398t281 -138q190 0 285 139t95 399q0 231 -96 371.5t-284 140.5q-184 0 -279.5 -133t-95.5 -381zM375 1784 h241l205 -264h-190z" />
<glyph unicode="&#xd3;" horiz-adv-x="1333" d="M84 700q0 326 153.5 515.5t428.5 189.5q281 0 432 -198.5t151 -499.5q0 -336 -150.5 -535t-432.5 -199q-281 0 -431.5 196.5t-150.5 530.5zM289 700q0 -260 94 -398t281 -138q190 0 285 139t95 399q0 231 -96 371.5t-284 140.5q-184 0 -279.5 -133t-95.5 -381zM518 1520 l203 264h244l-258 -264h-189z" />
<glyph unicode="&#xd4;" horiz-adv-x="1333" d="M84 700q0 326 153.5 515.5t428.5 189.5q281 0 432 -198.5t151 -499.5q0 -336 -150.5 -535t-432.5 -199q-281 0 -431.5 196.5t-150.5 530.5zM289 700q0 -260 94 -398t281 -138q190 0 285 139t95 399q0 231 -96 371.5t-284 140.5q-184 0 -279.5 -133t-95.5 -381zM350 1520 l219 270h197l219 -270h-188l-131 143l-127 -143h-189z" />
<glyph unicode="&#xd5;" horiz-adv-x="1333" d="M84 700q0 326 153.5 515.5t428.5 189.5q281 0 432 -198.5t151 -499.5q0 -336 -150.5 -535t-432.5 -199q-281 0 -431.5 196.5t-150.5 530.5zM289 700q0 -260 94 -398t281 -138q190 0 285 139t95 399q0 231 -96 371.5t-284 140.5q-184 0 -279.5 -133t-95.5 -381zM311 1561 q51 231 226 231q51 0 137 -42t112 -42q53 0 72 84h152q-16 -106 -71.5 -171t-150.5 -65q-55 0 -143 42t-113 42q-53 0 -69 -79h-152z" />
<glyph unicode="&#xd6;" horiz-adv-x="1333" d="M84 700q0 326 153.5 515.5t428.5 189.5q281 0 432 -198.5t151 -499.5q0 -336 -150.5 -535t-432.5 -199q-281 0 -431.5 196.5t-150.5 530.5zM289 700q0 -260 94 -398t281 -138q190 0 285 139t95 399q0 231 -96 371.5t-284 140.5q-184 0 -279.5 -133t-95.5 -381zM393 1569 v221h178v-221h-178zM762 1569v221h180v-221h-180z" />
<glyph unicode="&#xd7;" d="M76 207l340 342l-338 342l129 133l344 -342l340 340l131 -131l-340 -340l342 -344l-135 -129l-340 340l-342 -342z" />
<glyph unicode="&#xd8;" horiz-adv-x="1333" d="M84 700q0 326 153.5 515.5t428.5 189.5q141 0 256 -57l69 127h162l-113 -209q209 -190 209 -559q0 -336 -150.5 -535t-432.5 -199q-147 0 -267 58l-65 -123h-162l111 209q-199 192 -199 583zM289 700q0 -258 92 -395l450 871q-74 39 -167 38q-184 0 -279.5 -133 t-95.5 -381zM489 205q72 -39 175 -39q381 0 380 536q0 240 -100 377z" />
<glyph unicode="&#xd9;" horiz-adv-x="1312" d="M145 518v862h203v-856q0 -358 305 -358q311 0 312 358v856h202v-862q0 -274 -141 -409.5t-373 -135.5q-229 0 -368.5 133t-139.5 412zM350 1784h242l205 -264h-191z" />
<glyph unicode="&#xda;" horiz-adv-x="1312" d="M145 518v862h203v-856q0 -358 305 -358q311 0 312 358v856h202v-862q0 -274 -141 -409.5t-373 -135.5q-229 0 -368.5 133t-139.5 412zM496 1520l202 264h244l-258 -264h-188z" />
<glyph unicode="&#xdb;" horiz-adv-x="1312" d="M145 518v862h203v-856q0 -358 305 -358q311 0 312 358v856h202v-862q0 -274 -141 -409.5t-373 -135.5q-229 0 -368.5 133t-139.5 412zM338 1520l219 270h197l219 -270h-189l-131 143l-127 -143h-188z" />
<glyph unicode="&#xdc;" horiz-adv-x="1312" d="M145 518v862h203v-856q0 -358 305 -358q311 0 312 358v856h202v-862q0 -274 -141 -409.5t-373 -135.5q-229 0 -368.5 133t-139.5 412zM377 1569v221h178v-221h-178zM745 1569v221h181v-221h-181z" />
<glyph unicode="&#xdd;" horiz-adv-x="1114" d="M2 1380h229l326 -616l330 616h225l-453 -825v-555h-202v555zM381 1518l203 264h243l-258 -264h-188z" />
<glyph unicode="&#xde;" horiz-adv-x="1257" d="M168 0v1380h201v-250h372q209 0 319.5 -131t110.5 -290q0 -98 -42 -188.5t-143 -159t-245 -68.5h-372v-293h-201zM369 485h372q113 0 170.5 70t57.5 154q0 86 -57.5 157.5t-170.5 71.5h-372v-453z" />
<glyph unicode="&#xdf;" horiz-adv-x="1110" d="M156 0v981q0 207 112.5 316.5t296.5 109.5q158 0 261.5 -102.5t103.5 -262.5q0 -78 -40 -149.5t-104 -106.5q100 -41 166 -136t66 -216q0 -211 -124 -326.5t-335 -115.5l-94 6v166h88q135 0 205.5 71.5t70.5 194.5q0 115 -65.5 184.5t-188.5 69.5h-57v166h29 q92 0 143 60.5t51 138.5q0 80 -44 132t-132 52q-100 0 -161.5 -61.5t-61.5 -180.5v-991h-186z" />
<glyph unicode="&#xe0;" horiz-adv-x="1077" d="M74 512q0 211 112.5 352.5t300.5 141.5q145 0 238 -93v78h188v-768q0 -66 78 -65h31v-156q-33 -8 -78 -8q-141 0 -188 112q-98 -121 -264 -120q-193 0 -305.5 145t-112.5 381zM238 1380h241l205 -264h-190zM264 508q0 -168 61.5 -258t180.5 -90q229 0 229 336 q0 338 -229 338q-115 0 -178.5 -89.5t-63.5 -236.5z" />
<glyph unicode="&#xe1;" horiz-adv-x="1077" d="M74 512q0 211 112.5 352.5t300.5 141.5q145 0 238 -93v78h188v-768q0 -66 78 -65h31v-156q-33 -8 -78 -8q-141 0 -188 112q-98 -121 -264 -120q-193 0 -305.5 145t-112.5 381zM264 508q0 -168 61.5 -258t180.5 -90q229 0 229 336q0 338 -229 338q-115 0 -178.5 -89.5 t-63.5 -236.5zM381 1116l203 264h243l-258 -264h-188z" />
<glyph unicode="&#xe2;" horiz-adv-x="1077" d="M74 512q0 211 112.5 352.5t300.5 141.5q145 0 238 -93v78h188v-768q0 -66 78 -65h31v-156q-33 -8 -78 -8q-141 0 -188 112q-98 -121 -264 -120q-193 0 -305.5 145t-112.5 381zM213 1114l219 270h197l219 -270h-189l-131 143l-127 -143h-188zM264 508q0 -168 61.5 -258 t180.5 -90q229 0 229 336q0 338 -229 338q-115 0 -178.5 -89.5t-63.5 -236.5z" />
<glyph unicode="&#xe3;" horiz-adv-x="1077" d="M74 512q0 211 112.5 352.5t300.5 141.5q145 0 238 -93v78h188v-768q0 -66 78 -65h31v-156q-33 -8 -78 -8q-141 0 -188 112q-98 -121 -264 -120q-193 0 -305.5 145t-112.5 381zM184 1157q51 231 226 232q51 0 137 -42t112 -42q53 0 72 84h152q-16 -106 -71.5 -171 t-149.5 -65q-55 0 -143.5 42t-112.5 42q-53 0 -70 -80h-152zM264 508q0 -168 61.5 -258t180.5 -90q229 0 229 336q0 338 -229 338q-115 0 -178.5 -89.5t-63.5 -236.5z" />
<glyph unicode="&#xe4;" horiz-adv-x="1077" d="M74 512q0 211 112.5 352.5t300.5 141.5q145 0 238 -93v78h188v-768q0 -66 78 -65h31v-156q-33 -8 -78 -8q-141 0 -188 112q-98 -121 -264 -120q-193 0 -305.5 145t-112.5 381zM264 508q0 -168 61.5 -258t180.5 -90q229 0 229 336q0 338 -229 338q-115 0 -178.5 -89.5 t-63.5 -236.5zM266 1159v221h178v-221h-178zM635 1159v221h180v-221h-180z" />
<glyph unicode="&#xe5;" horiz-adv-x="1077" d="M74 512q0 211 112.5 352.5t300.5 141.5q145 0 238 -93v78h188v-768q0 -66 78 -65h31v-156q-33 -8 -78 -8q-141 0 -188 112q-98 -121 -264 -120q-193 0 -305.5 145t-112.5 381zM264 508q0 -168 61.5 -258t180.5 -90q229 0 229 336q0 338 -229 338q-115 0 -178.5 -89.5 t-63.5 -236.5zM324 1303q0 84 60 144t146 60q88 0 148.5 -60.5t60.5 -143.5q0 -86 -60.5 -146.5t-148.5 -60.5q-86 0 -146 60.5t-60 146.5zM432 1303q0 -41 30 -71t68 -30q41 0 71 30t30 71q0 39 -30 68.5t-71 29.5q-39 0 -68.5 -29.5t-29.5 -68.5z" />
<glyph unicode="&#xe6;" horiz-adv-x="1626" d="M88 291q0 285 389 291l217 6v47q0 199 -184 199q-98 0 -141 -30t-58 -89h-196q20 139 123.5 215t261.5 76q219 0 313 -127q117 127 311 127q209 0 318.5 -138.5t109.5 -361.5v-21q0 -10 -1 -19t-2 -16.5t-1 -11.5v-4h-665q18 -272 243 -272q164 0 211 139h193 q-90 -313 -404 -313q-223 0 -340 157q-98 -160 -362 -159q-76 0 -148.5 27.5t-130 100.5t-57.5 177zM276 295q0 -68 49.5 -105.5t125.5 -37.5q133 0 188 74.5t55 179.5v28l-188 -2q-230 0 -230 -137zM885 596h471q-14 238 -234 238q-96 0 -162.5 -66t-74.5 -172z" />
<glyph unicode="&#xe7;" horiz-adv-x="985" d="M82 496q0 240 118.5 375t319.5 135q168 0 274.5 -92.5t131.5 -241.5h-193q-37 160 -213 159q-119 0 -183.5 -83.5t-64.5 -251.5q0 -332 248 -332q86 0 141.5 42t71.5 116h193q-29 -156 -137.5 -245t-268.5 -89q-203 0 -320.5 135t-117.5 373zM236 -373l190 264h174 l-129 -264h-235z" />
<glyph unicode="&#xe8;" horiz-adv-x="1007" d="M80 496q0 240 118.5 375t315.5 135q209 0 318.5 -139.5t109.5 -362.5v-21q0 -10 -1 -19t-2 -16.5t-1 -11.5v-4h-666q18 -270 244 -270q164 0 211 139h193q-90 -313 -404 -313q-207 0 -321.5 133t-114.5 375zM211 1380h242l204 -264h-190zM274 594h471q-6 109 -63 174.5 t-170 65.5q-96 0 -163 -67t-75 -173z" />
<glyph unicode="&#xe9;" horiz-adv-x="1007" d="M80 496q0 240 118.5 375t315.5 135q209 0 318.5 -139.5t109.5 -362.5v-21q0 -10 -1 -19t-2 -16.5t-1 -11.5v-4h-666q18 -270 244 -270q164 0 211 139h193q-90 -313 -404 -313q-207 0 -321.5 133t-114.5 375zM274 594h471q-6 109 -63 174.5t-170 65.5q-96 0 -163 -67 t-75 -173zM354 1116l203 264h244l-258 -264h-189z" />
<glyph unicode="&#xea;" horiz-adv-x="1007" d="M80 496q0 240 118.5 375t315.5 135q209 0 318.5 -139.5t109.5 -362.5v-21q0 -10 -1 -19t-2 -16.5t-1 -11.5v-4h-666q18 -270 244 -270q164 0 211 139h193q-90 -313 -404 -313q-207 0 -321.5 133t-114.5 375zM186 1116l220 270h196l219 -270h-188l-131 144l-127 -144h-189 zM274 594h471q-6 109 -63 174.5t-170 65.5q-96 0 -163 -67t-75 -173z" />
<glyph unicode="&#xeb;" horiz-adv-x="1007" d="M80 496q0 240 118.5 375t315.5 135q209 0 318.5 -139.5t109.5 -362.5v-21q0 -10 -1 -19t-2 -16.5t-1 -11.5v-4h-666q18 -270 244 -270q164 0 211 139h193q-90 -313 -404 -313q-207 0 -321.5 133t-114.5 375zM229 1159v221h179v-221h-179zM274 594h471q-6 109 -63 174.5 t-170 65.5q-96 0 -163 -67t-75 -173zM598 1159v221h180v-221h-180z" />
<glyph unicode="&#xec;" horiz-adv-x="471" d="M-106 1380h241l205 -264h-190zM145 0v991h189v-991h-189z" />
<glyph unicode="&#xed;" horiz-adv-x="471" d="M127 1116l203 264h243l-258 -264h-188zM145 0v991h189v-991h-189z" />
<glyph unicode="&#xee;" horiz-adv-x="471" d="M-78 1106l219 270h197l219 -270h-188l-131 143l-127 -143h-189zM145 0v991h189v-991h-189z" />
<glyph unicode="&#xef;" horiz-adv-x="471" d="M-37 1159v221h178v-221h-178zM145 0v991h189v-991h-189zM332 1159v221h180v-221h-180z" />
<glyph unicode="&#xf0;" horiz-adv-x="1054" d="M86 504q0 229 120 363t314 134q96 0 166 -40q-37 106 -102 165l-117 -73l-61 98l73 45q-84 35 -170 35h-90v168q59 6 92 6q190 0 336 -102l180 112l60 -98l-150 -94q215 -242 215 -711q0 -246 -115.5 -386t-316.5 -140q-203 0 -318.5 138t-115.5 380zM274 502 q0 -336 246 -336q244 0 244 336q0 150 -63.5 237.5t-180.5 87.5q-115 0 -180.5 -83.5t-65.5 -241.5z" />
<glyph unicode="&#xf1;" horiz-adv-x="1046" d="M152 0v991h188v-86q100 100 260 101q164 0 252 -104.5t88 -276.5v-625h-188v610q0 98 -49.5 162t-139.5 64q-223 0 -223 -297v-539h-188zM168 1157q51 231 225 232q51 0 137 -42t113 -42q53 0 72 84h151q-16 -106 -71.5 -171t-149.5 -65q-55 0 -143 42t-113 42 q-53 0 -70 -80h-151z" />
<glyph unicode="&#xf2;" horiz-adv-x="1024" d="M80 504q0 231 121 366.5t317 135.5q201 0 318.5 -140.5t117.5 -361.5q0 -242 -116.5 -379t-319.5 -137q-207 0 -322.5 137t-115.5 379zM219 1380h242l205 -264h-191zM270 502q0 -340 248 -340q246 0 246 340q0 156 -62.5 244t-183.5 88q-117 0 -182.5 -84t-65.5 -248z " />
<glyph unicode="&#xf3;" horiz-adv-x="1024" d="M80 504q0 231 121 366.5t317 135.5q201 0 318.5 -140.5t117.5 -361.5q0 -242 -116.5 -379t-319.5 -137q-207 0 -322.5 137t-115.5 379zM270 502q0 -340 248 -340q246 0 246 340q0 156 -62.5 244t-183.5 88q-117 0 -182.5 -84t-65.5 -248zM362 1116l203 264h244l-258 -264 h-189z" />
<glyph unicode="&#xf4;" horiz-adv-x="1024" d="M80 504q0 231 121 366.5t317 135.5q201 0 318.5 -140.5t117.5 -361.5q0 -242 -116.5 -379t-319.5 -137q-207 0 -322.5 137t-115.5 379zM201 1116l219 270h196l220 -270h-189l-131 144l-127 -144h-188zM270 502q0 -340 248 -340q246 0 246 340q0 156 -62.5 244t-183.5 88 q-117 0 -182.5 -84t-65.5 -248z" />
<glyph unicode="&#xf5;" horiz-adv-x="1024" d="M80 504q0 231 121 366.5t317 135.5q201 0 318.5 -140.5t117.5 -361.5q0 -242 -116.5 -379t-319.5 -137q-207 0 -322.5 137t-115.5 379zM158 1157q51 231 225 232q51 0 137 -42t113 -42q53 0 72 84h151q-16 -106 -71.5 -171t-149.5 -65q-55 0 -143.5 42t-112.5 42 q-53 0 -70 -80h-151zM270 502q0 -340 248 -340q246 0 246 340q0 156 -62.5 244t-183.5 88q-117 0 -182.5 -84t-65.5 -248z" />
<glyph unicode="&#xf6;" horiz-adv-x="1024" d="M80 504q0 231 121 366.5t317 135.5q201 0 318.5 -140.5t117.5 -361.5q0 -242 -116.5 -379t-319.5 -137q-207 0 -322.5 137t-115.5 379zM238 1159v221h178v-221h-178zM270 502q0 -340 248 -340q246 0 246 340q0 156 -62.5 244t-183.5 88q-117 0 -182.5 -84t-65.5 -248z M606 1159v221h180v-221h-180z" />
<glyph unicode="&#xf7;" horiz-adv-x="1148" d="M78 457v184h989v-184h-989zM442 57v240h228v-240h-228zM442 809v240h228v-240h-228z" />
<glyph unicode="&#xf8;" horiz-adv-x="1024" d="M76 504q0 233 119.5 367.5t316.5 134.5q86 0 174 -35l47 84h150l-86 -156q150 -137 149 -395q0 -242 -115.5 -380t-318.5 -138q-100 0 -190 37l-46 -84h-149l86 159q-137 134 -137 406zM264 502q0 -147 45 -230l293 543q-41 18 -90 19q-117 0 -182.5 -84t-65.5 -248z M406 180q45 -18 106 -18q246 0 246 340q0 141 -53 225z" />
<glyph unicode="&#xf9;" horiz-adv-x="1046" d="M119 991h188v-608q0 -111 54.5 -168t134.5 -57q223 0 223 313v520h188v-991h-188v90q-98 -102 -258 -102q-164 0 -252 103.5t-88 277.5zM246 1380h241l205 -264h-190z" />
<glyph unicode="&#xfa;" horiz-adv-x="1046" d="M119 991h188v-608q0 -111 54.5 -168t134.5 -57q223 0 223 313v520h188v-991h-188v90q-98 -102 -258 -102q-164 0 -252 103.5t-88 277.5zM309 1116l203 264h244l-258 -264h-189z" />
<glyph unicode="&#xfb;" horiz-adv-x="1046" d="M119 991h188v-608q0 -111 54.5 -168t134.5 -57q223 0 223 313v520h188v-991h-188v90q-98 -102 -258 -102q-164 0 -252 103.5t-88 277.5zM197 1116l219 270h196l219 -270h-188l-131 144l-127 -144h-188z" />
<glyph unicode="&#xfc;" horiz-adv-x="1046" d="M119 991h188v-608q0 -111 54.5 -168t134.5 -57q223 0 223 313v520h188v-991h-188v90q-98 -102 -258 -102q-164 0 -252 103.5t-88 277.5zM240 1159v221h178v-221h-178zM608 1159v221h180v-221h-180z" />
<glyph unicode="&#xfd;" horiz-adv-x="884" d="M6 991h207l240 -727l239 727h205l-418 -1190q-59 -174 -260 -174l-78 6v166l78 2q70 0 98 82l41 115zM274 1116l203 264h244l-258 -264h-189z" />
<glyph unicode="&#xfe;" horiz-adv-x="1083" d="M158 -389v1769h190v-471q98 92 236 92q195 0 304 -137t109 -354q0 -238 -109.5 -381t-303.5 -143q-135 0 -236 96v-471h-190zM340 496q0 -330 233 -330q115 0 174.5 88t59.5 252q0 145 -60.5 233t-173.5 88q-233 1 -233 -331z" />
<glyph unicode="&#xff;" horiz-adv-x="884" d="M6 991h207l240 -727l239 727h205l-418 -1190q-59 -174 -260 -174l-78 6v166l78 2q70 0 98 82l41 115zM170 1159v221h178v-221h-178zM539 1159v221h180v-221h-180z" />
<glyph unicode="&#x152;" horiz-adv-x="1912" d="M84 700q0 326 153.5 515.5t428.5 189.5q164 0 292 -78v53h865v-190h-664v-391h549v-191h-549v-420h664v-188h-865v49q-127 -76 -292 -76q-281 0 -431.5 196.5t-150.5 530.5zM291 700q0 -260 94 -397t281 -137q199 0 292 147v752q-98 150 -292 149q-184 0 -279.5 -133 t-95.5 -381z" />
<glyph unicode="&#x153;" horiz-adv-x="1693" d="M74 504q0 233 119.5 367.5t316.5 134.5q233 0 340 -191q104 190 344 191q213 0 319.5 -131.5t106.5 -350.5q0 -57 -4 -90h-664q8 -147 69.5 -210.5t172.5 -63.5q162 0 209 141h194q-90 -313 -403 -313q-242 0 -344 186q-104 -186 -340 -186q-205 0 -320.5 136t-115.5 380 zM262 502q0 -340 248 -340q246 0 246 340q0 156 -62.5 244t-183.5 88q-117 0 -182.5 -85t-65.5 -247zM954 596h471q-14 240 -231 240q-100 0 -166 -63.5t-74 -176.5z" />
<glyph unicode="&#x178;" horiz-adv-x="1114" d="M2 1380h229l326 -616l330 616h225l-453 -825v-555h-202v555zM281 1563v221h178v-221h-178zM649 1563v221h180v-221h-180z" />
<glyph unicode="&#x2c6;" horiz-adv-x="923" d="M145 1110l220 270h196l219 -270h-188l-131 143l-127 -143h-189z" />
<glyph unicode="&#x2dc;" horiz-adv-x="1019" d="M156 1157q51 231 225 232q51 0 137 -42t113 -42q53 0 71 84h152q-16 -106 -71.5 -171t-149.5 -65q-55 0 -143.5 42t-112.5 42q-53 0 -70 -80h-151z" />
<glyph unicode="&#x2013;" horiz-adv-x="1214" d="M113 469v174h985v-174h-985z" />
<glyph unicode="&#x2014;" horiz-adv-x="1550" d="M-6 471v174h1550v-174h-1550z" />
<glyph unicode="&#x2018;" horiz-adv-x="532" d="M158 893v231q0 127 67.5 191.5t175.5 64.5v-106q-104 0 -104 -131v-15h80v-235h-219z" />
<glyph unicode="&#x2019;" horiz-adv-x="532" d="M131 893v106q104 0 105 131v15h-82v235h221v-231q0 -127 -67.5 -191.5t-176.5 -64.5z" />
<glyph unicode="&#x201a;" horiz-adv-x="532" d="M131 -145q104 0 105 129v14h-82v235h221v-229q0 -129 -67.5 -192.5t-176.5 -63.5v107z" />
<glyph unicode="&#x201c;" horiz-adv-x="870" d="M158 893v231q0 127 67.5 191.5t175.5 64.5v-106q-104 0 -104 -131v-15h80v-235h-219zM496 893v231q0 127 67.5 191.5t175.5 64.5v-106q-104 0 -104 -131v-15h80v-235h-219z" />
<glyph unicode="&#x201d;" horiz-adv-x="870" d="M131 893v106q104 0 105 131v15h-82v235h221v-231q0 -127 -67.5 -191.5t-176.5 -64.5zM469 893v106q104 0 104 131v15h-81v235h221v-231q0 -127 -67.5 -191.5t-176.5 -64.5z" />
<glyph unicode="&#x201e;" horiz-adv-x="870" d="M131 -143q104 0 105 129v14h-82v236h221v-230q0 -129 -67.5 -192.5t-176.5 -63.5v107zM469 -143q104 0 104 129v14h-81v236h221v-230q0 -129 -67.5 -192.5t-176.5 -63.5v107z" />
<glyph unicode="&#x2022;" horiz-adv-x="684" d="M168 692q0 72 52 124t124 52q74 0 126 -51t52 -125t-51 -125t-127 -51q-72 0 -124 51t-52 125z" />
<glyph unicode="&#x2026;" horiz-adv-x="1691" d="M178 0v240h228v-240h-228zM713 0v240h227v-240h-227zM1268 0v240h227v-240h-227z" />
<glyph unicode="&#x2039;" horiz-adv-x="645" d="M84 475v162l483 301v-186l-313 -199l313 -201v-184z" />
<glyph unicode="&#x203a;" horiz-adv-x="645" d="M84 168v184l313 203l-313 197v186l483 -301v-162z" />
<glyph unicode="&#x20ac;" horiz-adv-x="1185" d="M53 453v180h156q0 90 2 137h-158v178h178q41 201 149.5 329t307.5 128q170 0 277.5 -99.5t140.5 -256.5h-199q-16 82 -72.5 129t-146.5 47q-205 0 -262 -277h430v-178h-450v-137h450v-180h-436q51 -287 268 -287q180 0 219 176h201q-29 -162 -137.5 -263.5t-282.5 -101.5 q-203 0 -315.5 131.5t-147.5 344.5h-172z" />
<glyph unicode="&#x2122;" horiz-adv-x="1406" d="M106 1237v141h512v-141h-180v-535h-151v535h-181zM682 702v676h137l174 -366l172 366h135v-676h-147v324l-100 -207h-119l-100 211v-328h-152z" />
<glyph unicode="&#xe000;" horiz-adv-x="990" d="M0 990h990v-990h-990v990z" />
<glyph unicode="&#xfb01;" horiz-adv-x="1155" d="M59 819v172h162v96q0 170 69.5 241t219.5 71l108 -10v-164h-106q-55 0 -78.5 -27t-23.5 -92v-115h202v-172h-202v-819h-189v819h-162zM829 1145v235h191v-235h-191zM831 0v991h189v-991h-189z" />
<glyph unicode="&#xfb02;" horiz-adv-x="1202" d="M59 819v172h162v96q0 170 69.5 241t219.5 71l108 -10v-164h-106q-55 0 -78.5 -27t-23.5 -92v-115h202v-172h-202v-819h-189v819h-162zM831 262v1118h189v-1124q0 -55 22.5 -73.5t71.5 -18.5h55v-160q-41 -10 -92 -10q-113 0 -179.5 56t-66.5 212z" />
<glyph unicode="&#xfb03;" horiz-adv-x="1820" d="M1484 1145v235h191v-235h-191zM1486 0v991h189v-991h-189zM725 819v172h162v96q0 170 69.5 241t219.5 71l108 -10v-164h-106q-55 0 -78.5 -27t-23.5 -92v-115h202v-172h-202v-819h-189v819h-162zM55 819v172h162v96q0 170 69.5 241t219.5 71l108 -10v-164h-106 q-55 0 -78.5 -27t-23.5 -92v-115h202v-172h-202v-819h-189v819h-162z" />
<glyph unicode="&#xfb04;" horiz-adv-x="1857" d="M1476 262v1118h189v-1124q0 -55 22.5 -73.5t71.5 -18.5h55v-160q-41 -10 -92 -10q-113 0 -179.5 56t-66.5 212zM725 819v172h162v96q0 170 69.5 241t219.5 71l108 -10v-164h-106q-55 0 -78.5 -27t-23.5 -92v-115h202v-172h-202v-819h-189v819h-162zM55 819v172h162v96 q0 170 69.5 241t219.5 71l108 -10v-164h-106q-55 0 -78.5 -27t-23.5 -92v-115h202v-172h-202v-819h-189v819h-162z" />
</font>
</defs>
</svg>
