<?xml version="1.0" standalone="no"?>
<!DOCTYPE svg PUBLIC "-//W3C//DTD SVG 1.1//EN" "http://www.w3.org/Graphics/SVG/1.1/DTD/svg11.dtd" >
<svg xmlns="http://www.w3.org/2000/svg">
<metadata>
This is a custom SVG webfont generated by Font Squirrel.
Copyright   : Copyright c by Binnenland 2007 All rights reserved This software may not be reproduced used displayed modified disclosed or transferred without the express written approval of Binnenland 
Designer    : Binnenland Michael Mischler  Niklaus Thoenen
Foundry URL : wwwbinnenlandch
</metadata>
<defs>
<font id="RelevantLight" horiz-adv-x="1105" >
<font-face units-per-em="2048" ascent="1536" descent="-512" />
<missing-glyph horiz-adv-x="532" />
<glyph unicode=" "  horiz-adv-x="532" />
<glyph unicode="&#x09;" horiz-adv-x="532" />
<glyph unicode="&#xa0;" horiz-adv-x="532" />
<glyph unicode="!" horiz-adv-x="559" d="M188 0v193h181v-193h-181zM215 1376h127l-16 -993h-95z" />
<glyph unicode="&#x22;" horiz-adv-x="743" d="M184 911v465h111v-465h-111zM446 911v465h113v-465h-113z" />
<glyph unicode="#" horiz-adv-x="1456" d="M104 455v112h302l94 289h-330v113h367l135 407h114l-135 -407h293l135 407h115l-135 -407h266v-113h-303l-94 -289h332v-112h-369l-150 -455h-114l149 455h-293l-149 -455h-115l150 455h-265zM520 567h293l94 289h-293z" />
<glyph unicode="$" horiz-adv-x="1222" d="M86 389h133q12 -123 105.5 -206t242.5 -93v572q-102 20 -184 47q-117 39 -183.5 121.5t-66.5 199.5q0 172 124 270.5t310 104.5v145h88v-145q207 -16 309.5 -126t122.5 -273h-131q-31 254 -301 280v-522q150 -35 207 -53q250 -90 250 -355q0 -166 -128 -267t-329 -114 v-155h-88v155q-223 10 -345 129t-136 285zM260 1034q0 -154 189 -219q45 -16 118 -33v506q-133 -6 -220 -72.5t-87 -181.5zM655 92q145 12 237.5 80t92.5 186q0 188 -182 250q-53 16 -148 37v-553z" />
<glyph unicode="%" horiz-adv-x="1632" d="M102 1008q0 70 12.5 133t40 125.5t84 99.5t134.5 37q100 0 163.5 -65.5t85 -148.5t21.5 -181q0 -170 -64.5 -284t-205.5 -114q-139 0 -205 111t-66 287zM207 1008q0 -297 166 -297q168 0 168 297q0 125 -39 210t-129 85q-166 0 -166 -295zM428 0l639 1378h117l-637 -1378 h-119zM989 387q0 70 12.5 132.5t40 125t84 100t134.5 37.5q100 0 163.5 -65.5t85 -148.5t21.5 -181q0 -172 -64.5 -285.5t-205.5 -113.5q-139 0 -205 111.5t-66 287.5zM1094 387q0 -297 165.5 -297t165.5 297q0 123 -37.5 209t-127.5 86q-166 0 -166 -295z" />
<glyph unicode="&#x26;" horiz-adv-x="1277" d="M127 360q0 68 20.5 123.5t66.5 100.5t88 74.5t114 72.5l-56 66q-51 59 -73.5 88.5t-49 85t-26.5 104.5q0 141 95 234.5t251 93.5q150 0 247 -93t97 -237q0 -53 -19.5 -101t-43 -80t-73.5 -72t-78 -58l-87 -55l358 -394q98 174 99 447h119q0 -332 -136 -539l203 -221h-162 l-118 127q-154 -154 -394 -154q-207 0 -324.5 113.5t-117.5 273.5zM252 360q0 -111 79 -191.5t238 -80.5q190 0 314 127l-389 430q-131 -78 -186.5 -136.5t-55.5 -148.5zM336 1075q0 -51 23.5 -93t83 -103.5t81.5 -90.5l66 39q190 115 190 248q0 92 -62.5 151.5t-160.5 59.5 q-102 0 -161.5 -59.5t-59.5 -151.5z" />
<glyph unicode="'" horiz-adv-x="479" d="M184 911v465h111v-465h-111z" />
<glyph unicode="(" horiz-adv-x="497" d="M96 582q0 215 57.5 425t110.5 315t105 179h129q-53 -72 -109.5 -182.5t-116 -319t-59.5 -417.5q0 -164 34 -325t84 -279.5t91 -193.5t76 -120h-129q-53 78 -105.5 180.5t-110 312.5t-57.5 425z" />
<glyph unicode=")" horiz-adv-x="497" d="M0 -336q53 76 108.5 183.5t115 317.5t59.5 417q0 164 -33 324.5t-85 280.5t-91 191.5t-74 122.5h129q37 -53 74 -124.5t87 -191.5t80.5 -280t30.5 -323.5t-30.5 -322.5t-80.5 -278.5t-87 -190.5t-74 -126h-129z" />
<glyph unicode="*" horiz-adv-x="1083" d="M145 1180l35 88l309 -115v330h99v-330l313 117l37 -92l-313 -113l190 -266l-78 -60l-196 277l-193 -277l-84 60l191 266z" />
<glyph unicode="+" horiz-adv-x="1167" d="M96 489v119h426v428h121v-428h426v-119h-426v-428h-121v428h-426z" />
<glyph unicode="," horiz-adv-x="561" d="M168 -188q66 2 88.5 48t22.5 140h-91v193h185v-224q-2 -111 -56.5 -171t-148.5 -68v82z" />
<glyph unicode="-" horiz-adv-x="966" d="M168 498v114h629v-114h-629z" />
<glyph unicode="." horiz-adv-x="557" d="M188 0v193h181v-193h-181z" />
<glyph unicode="/" horiz-adv-x="899" d="M49 -49l676 1470h123l-674 -1470h-125z" />
<glyph unicode="0" d="M98 690q0 121 19.5 233.5t67.5 227.5t147.5 184.5t238.5 69.5q135 0 233.5 -66.5t147.5 -177t70.5 -226.5t21.5 -245q0 -145 -24.5 -268t-76.5 -226.5t-147.5 -163t-224.5 -59.5q-166 0 -275.5 99.5t-153.5 254t-44 363.5zM223 690q0 -598 348.5 -598t348.5 598 q0 78 -7.5 150.5t-30 157.5t-59.5 145.5t-101.5 101.5t-150.5 41q-129 0 -209.5 -89t-109.5 -215t-29 -292z" />
<glyph unicode="1" d="M223 1016v143l330 219h98v-1263h258v-115h-663v115h280v1095z" />
<glyph unicode="2" d="M127 1038q20 158 138 264.5t288 106.5q188 0 295.5 -114.5t107.5 -286.5q0 -217 -233 -459l-440 -430h692v-119h-834v131q406 389 504 498q184 201 184 377q0 125 -70.5 203.5t-205.5 78.5q-117 0 -199 -69.5t-100 -180.5h-127z" />
<glyph unicode="3" d="M102 317h129q25 -100 109 -163.5t205 -63.5q137 0 232 85t95 222q0 127 -82.5 204t-220.5 77l-110 2v102l96 2q127 0 203 68t76 180q0 125 -78 190.5t-209 65.5q-102 0 -176 -54t-99 -147h-129q27 143 139.5 231.5t264.5 88.5q190 0 302 -102.5t112 -276.5 q0 -184 -183 -291q102 -49 160.5 -137t58.5 -199q0 -195 -130 -311.5t-322 -116.5q-168 0 -289 94t-154 250z" />
<glyph unicode="4" d="M70 338v104l587 936h150v-925h221v-115h-221v-338h-125v338h-612zM205 453h477v764z" />
<glyph unicode="5" d="M115 287h129q39 -88 125 -142.5t180 -54.5q156 0 238.5 105.5t82.5 267.5q0 168 -78.5 263t-232.5 95q-213 0 -287 -178h-116l69 735h699v-118h-598l-47 -435q109 115 292 115q197 0 310.5 -133t113.5 -342q0 -217 -120.5 -354.5t-325.5 -137.5q-150 0 -270.5 84.5 t-163.5 229.5z" />
<glyph unicode="6" d="M100 614q0 154 26 289t81 251t152.5 183.5t228.5 67.5q303 0 389 -301h-125q-57 184 -264 184q-309 0 -361 -602q51 102 145.5 158.5t211.5 56.5q186 0 304 -132t118 -329q0 -207 -124 -337t-319 -130q-223 0 -343 178t-120 463zM256 434q0 -145 87 -244.5t220 -99.5 q139 0 228.5 95.5t89.5 252.5q0 154 -83 248t-227 94q-125 0 -220 -93t-95 -253z" />
<glyph unicode="7" d="M111 1260v118h870v-129l-598 -1249h-137l612 1260h-747z" />
<glyph unicode="8" d="M98 377q0 113 61.5 204t172.5 140q-94 51 -146.5 132t-52.5 177q0 180 116 278.5t306 98.5q188 0 303 -98.5t115 -278.5q0 -96 -52.5 -178t-146.5 -131q111 -51 172.5 -142.5t61.5 -201.5q0 -190 -126 -297t-327 -107q-203 0 -330 108t-127 296zM223 379 q0 -135 91.5 -211t240.5 -76q145 0 236.5 77t91.5 210q0 127 -88 205t-240 78q-156 0 -244 -78t-88 -205zM256 1030q0 -119 87 -188.5t212 -69.5q123 0 208 69.5t85 188.5q0 125 -80 191.5t-213 66.5q-139 0 -219 -66.5t-80 -191.5z" />
<glyph unicode="9" d="M100 938q0 207 124 337t319 130q223 0 343 -178t120 -463q0 -154 -26 -289t-81 -250.5t-152.5 -183.5t-228.5 -68q-303 0 -389 301h125q57 -184 264 -184q309 0 361 602q-51 -102 -145.5 -158.5t-211.5 -56.5q-186 0 -304 132t-118 329zM225 940q0 -154 83 -248t227 -94 q125 0 220 93t95 253q0 145 -87 244.5t-220 99.5q-139 0 -228.5 -95t-89.5 -253z" />
<glyph unicode=":" horiz-adv-x="559" d="M188 0v193h181v-193h-181zM188 772v193h181v-193h-181z" />
<glyph unicode=";" horiz-adv-x="557" d="M162 -188q66 2 88 48t22 140h-90v193h185v-224q-2 -111 -56.5 -171t-148.5 -68v82zM186 772v193h181v-193h-181z" />
<glyph unicode="&#x3c;" horiz-adv-x="1097" d="M102 494v127l891 389v-123l-757 -332l757 -344v-123z" />
<glyph unicode="=" horiz-adv-x="1302" d="M205 305v119h893v-119h-893zM205 678v119h893v-119h-893z" />
<glyph unicode="&#x3e;" horiz-adv-x="1097" d="M102 88v123l758 344l-758 332v123l891 -389v-127z" />
<glyph unicode="?" horiz-adv-x="948" d="M63 1020q12 168 119 275.5t271 107.5q170 0 281.5 -107.5t111.5 -279.5q0 -96 -49 -174t-142 -172l-69 -72q-92 -92 -92 -192v-62h-117v74q0 123 115 244l75 79q78 82 118 143.5t40 131.5q0 121 -77 196.5t-195 75.5q-115 0 -186.5 -75.5t-82.5 -192.5h-121zM348 0v193 h182v-193h-182z" />
<glyph unicode="@" horiz-adv-x="2002" d="M102 489q0 252 126 463t336 330t452 119q369 0 623.5 -237.5t254.5 -567.5q0 -276 -144 -443t-343 -167q-98 0 -149.5 48t-55.5 122q-147 -164 -338 -164q-154 0 -234.5 107.5t-80.5 265.5q0 260 144.5 439t355.5 179q186 0 254 -137l24 117h119l-139 -721q-6 -28 -6 -52 q0 -104 112 -104q154 0 263.5 140.5t109.5 367.5q0 295 -224.5 496.5t-545.5 201.5q-332 0 -568.5 -235.5t-236.5 -567t236.5 -567t568.5 -235.5q322 0 545 213h151q-131 -150 -313 -235t-383 -85q-383 0 -648.5 269t-265.5 640zM664 365q0 -262 221 -263q156 0 265.5 144.5 t109.5 371.5q0 121 -48.5 188.5t-171.5 67.5q-160 0 -264 -146t-112 -363z" />
<glyph unicode="A" horiz-adv-x="1222" d="M14 0l529 1378h137l528 -1378h-127l-151 393h-637l-150 -393h-129zM340 514h545l-273 715z" />
<glyph unicode="B" horiz-adv-x="1316" d="M178 0v1378h567q197 0 301.5 -101t104.5 -257q0 -205 -186 -297q109 -45 165 -132t56 -194q0 -162 -108.5 -279.5t-303.5 -117.5h-596zM305 119h467q135 0 210 82t75 196q0 106 -74 183t-203 77h-475v-538zM305 776h451q125 0 196.5 71t71.5 173q0 109 -70.5 174.5 t-208.5 65.5h-440v-484z" />
<glyph unicode="C" horiz-adv-x="1314" d="M102 694q0 332 152 521.5t424 189.5q211 0 352 -112.5t184 -301.5h-131q-37 139 -144.5 218t-260.5 79q-217 0 -332 -155.5t-115 -438.5q0 -289 115 -446.5t332 -157.5q160 0 265.5 80t143.5 227h130q-41 -195 -185.5 -309.5t-353.5 -114.5q-276 0 -426 192.5t-150 528.5 z" />
<glyph unicode="D" horiz-adv-x="1347" d="M178 0v1378h490q276 0 426.5 -184t150.5 -485q0 -336 -148.5 -522.5t-428.5 -186.5h-490zM305 119h363q449 0 448 588q0 258 -114.5 405.5t-333.5 147.5h-363v-1141z" />
<glyph unicode="E" horiz-adv-x="1177" d="M178 0v1378h914v-118h-787v-494h672v-119h-672v-528h787v-119h-914z" />
<glyph unicode="F" horiz-adv-x="1120" d="M178 0v1378h918v-118h-791v-494h672v-119h-672v-647h-127z" />
<glyph unicode="G" horiz-adv-x="1329" d="M102 694q0 332 152 521.5t424 189.5q211 0 352 -112.5t184 -301.5h-131q-37 139 -144.5 218t-260.5 79q-217 0 -332 -155.5t-115 -438.5q0 -291 114 -446.5t333 -155.5q186 0 302 109.5t116 324.5v68h-494v119h621v-183q0 -258 -149.5 -406.5t-395.5 -148.5 q-276 0 -426 191.5t-150 527.5z" />
<glyph unicode="H" horiz-adv-x="1347" d="M178 0v1378h127v-616h737v616h127v-1378h-127v643h-737v-643h-127z" />
<glyph unicode="I" horiz-adv-x="483" d="M178 0v1378h127v-1378h-127z" />
<glyph unicode="J" horiz-adv-x="903" d="M25 328h127q8 -98 67.5 -167t155.5 -69q109 0 166 69.5t57 182.5v1034h127v-1034q0 -158 -91 -264.5t-259 -106.5q-152 0 -246 105t-104 250z" />
<glyph unicode="K" horiz-adv-x="1214" d="M178 0v1378h127v-760l686 760h164l-506 -559l557 -819h-151l-492 725l-258 -285v-440h-127z" />
<glyph unicode="L" horiz-adv-x="1091" d="M178 0v1378h127v-1259h762v-119h-889z" />
<glyph unicode="M" horiz-adv-x="1554" d="M178 0v1378h150l450 -1099l449 1099h149v-1378h-127v1147l-411 -1008h-121l-412 1008v-1147h-127z" />
<glyph unicode="N" horiz-adv-x="1329" d="M178 0v1378h141l705 -1169v1169h127v-1378h-141l-705 1171v-1171h-127z" />
<glyph unicode="O" horiz-adv-x="1355" d="M102 700q0 324 152 514.5t424 190.5t423.5 -195.5t151.5 -504.5q0 -342 -149.5 -537t-425.5 -195q-279 0 -427.5 194.5t-148.5 532.5zM231 700q0 -293 114 -451.5t333 -158.5q221 0 333.5 159t112.5 453q0 266 -114.5 426t-331.5 160q-215 0 -331 -154.5t-116 -433.5z " />
<glyph unicode="P" horiz-adv-x="1243" d="M178 0v1378h543q203 0 316.5 -119.5t113.5 -283.5t-113.5 -280.5t-316.5 -116.5h-416v-578h-127zM305 696h416q145 0 224 81t79 198t-80 201t-223 84h-416v-564z" />
<glyph unicode="Q" horiz-adv-x="1355" d="M102 700q0 326 154 515.5t422 189.5q272 0 423.5 -195.5t151.5 -507.5q0 -326 -136 -517t-392 -210q0 -143 41 -193t121 -50h117v-107q-57 -6 -105 -6q-164 0 -231.5 85t-67.5 276q-240 23 -369 214t-129 506zM231 700q0 -293 114 -451.5t333 -158.5q221 0 333.5 159 t112.5 451q0 268 -115.5 428t-330.5 160t-331 -156t-116 -432z" />
<glyph unicode="R" horiz-adv-x="1277" d="M178 0v1378h543q203 0 316.5 -119.5t113.5 -283.5q0 -135 -80 -242.5t-227 -142.5l373 -590h-148l-358 578h-406v-578h-127zM305 696h416q145 0 224 81t79 198t-80 201t-223 84h-416v-564z" />
<glyph unicode="S" horiz-adv-x="1222" d="M86 389h133q14 -131 116.5 -215t266.5 -84q166 0 274.5 69.5t108.5 198.5q0 188 -182 250q-47 16 -198.5 46t-221.5 55q-117 39 -183.5 121.5t-66.5 199.5q0 178 133 277.5t330 99.5q238 0 354.5 -112.5t136.5 -288.5h-131q-16 131 -104 207.5t-256 76.5 q-143 0 -239.5 -66.5t-96.5 -189.5q0 -154 189 -219q53 -18 200.5 -50t212.5 -54q250 -90 250 -355q0 -176 -144.5 -279.5t-365.5 -103.5q-240 0 -370 122t-146 294z" />
<glyph unicode="T" horiz-adv-x="1132" d="M66 1260v118h1003v-118h-438v-1260h-129v1260h-436z" />
<glyph unicode="U" horiz-adv-x="1353" d="M178 504v874h127v-870q0 -418 371 -418q373 0 373 418v870h127v-874q0 -266 -134.5 -398.5t-366 -132.5t-364.5 133.5t-133 397.5z" />
<glyph unicode="V" horiz-adv-x="1114" d="M25 1378h127l405 -1208l408 1208h125l-465 -1378h-136z" />
<glyph unicode="W" horiz-adv-x="1658" d="M41 1378h131l285 -1171l311 1171h123l311 -1171l287 1171h129l-348 -1378h-131l-308 1167l-311 -1167h-131z" />
<glyph unicode="X" horiz-adv-x="1064" d="M12 0l447 709l-414 669h143l342 -557l344 557h146l-412 -667l443 -711h-146l-375 598l-372 -598h-146z" />
<glyph unicode="Y" horiz-adv-x="1071" d="M4 1378h143l392 -688l391 688h137l-469 -815v-563h-127v563z" />
<glyph unicode="Z" horiz-adv-x="1146" d="M96 0v125l797 1135h-748v118h889v-123l-796 -1134h802v-121h-944z" />
<glyph unicode="[" horiz-adv-x="634" d="M199 -317v1841h426v-103h-312v-1636h312v-102h-426z" />
<glyph unicode="\" horiz-adv-x="899" d="M72 1378h123l632 -1378h-125z" />
<glyph unicode="]" horiz-adv-x="634" d="M10 -217h312v1638h-312v103h426v-1841h-426v100z" />
<glyph unicode="^" horiz-adv-x="872" d="M102 784l287 658h107l274 -658h-113l-217 521l-225 -521h-113z" />
<glyph unicode="_" horiz-adv-x="937" d="M0 -178h938v-107h-938v107z" />
<glyph unicode="`" horiz-adv-x="708" d="M104 1376h158l209 -264h-117z" />
<glyph unicode="a" horiz-adv-x="1089" d="M96 487q0 215 108.5 352.5t293 137.5t282.5 -133v119h117v-762q0 -53 22.5 -77t73.5 -24h31v-100q-20 -6 -59 -6q-139 0 -172 145q-106 -154 -301 -153q-182 0 -289 138t-107 363zM213 485q0 -182 76 -286.5t209 -104.5q141 0 217 100.5t76 282.5q0 190 -74 290.5 t-213 100.5q-135 0 -213 -105.5t-78 -277.5z" />
<glyph unicode="b" horiz-adv-x="1073" d="M166 0v1378h117v-547q100 145 292 146q197 0 299.5 -136t102.5 -352q0 -229 -107.5 -366t-294.5 -137q-190 0 -292 153v-139h-117zM276 479q0 -186 75 -285.5t218.5 -99.5t217 105.5t73.5 285.5q0 178 -75.5 280.5t-215.5 102.5q-143 0 -218 -99.5t-75 -289.5z" />
<glyph unicode="c" horiz-adv-x="989" d="M96 485q0 229 111.5 360.5t304.5 131.5q160 0 260 -83t129 -226h-121q-45 201 -268 200q-145 0 -222 -98t-77 -285q0 -391 299 -391q219 0 268 199h119q-70 -307 -387 -307q-195 0 -305.5 131.5t-110.5 367.5z" />
<glyph unicode="d" horiz-adv-x="1071" d="M94 489q0 221 104.5 354.5t297 133.5t292.5 -146v547h117v-1378h-117v139q-106 -154 -292.5 -153.5t-294 137.5t-107.5 366zM211 485q0 -184 75.5 -287.5t215.5 -103.5q145 0 217 102.5t72 282.5q0 190 -74 289.5t-215.5 99.5t-216 -101.5t-74.5 -281.5z" />
<glyph unicode="e" horiz-adv-x="1015" d="M96 477q0 238 110.5 369t303.5 131q207 0 309.5 -124t102.5 -347l-2 -49h-705q6 -176 86 -269.5t215 -93.5q100 0 171 49.5t101 132.5h119q-39 -141 -139 -215.5t-252 -74.5q-193 0 -306.5 132t-113.5 359zM217 561h584q-14 307 -291 307q-131 0 -207 -83t-86 -224z" />
<glyph unicode="f" horiz-adv-x="661" d="M76 856v107h164v135q0 158 64.5 225.5t205.5 67.5q41 0 90 -7v-102h-88q-84 0 -120 -39t-36 -133v-147h238v-107h-238v-856h-116v856h-164z" />
<glyph unicode="g" horiz-adv-x="1077" d="M96 500q0 213 106.5 345t293.5 132q203 0 299 -152v138h116v-918q0 -442 -405 -442q-141 0 -239.5 75.5t-139.5 210.5h119q70 -180 260 -180q152 0 220.5 78t68.5 258v105q-100 -162 -299 -162q-190 0 -295 138t-105 374zM213 498q0 -193 74.5 -298.5t214.5 -105.5 q145 0 218 106.5t73 288.5q0 184 -75 281.5t-216 97.5q-139 0 -214 -100t-75 -270z" />
<glyph unicode="h" horiz-adv-x="1064" d="M166 0v1378h117v-536q104 135 295 135q166 0 251.5 -105.5t85.5 -283.5v-588h-116v580q0 143 -64.5 215.5t-175.5 72.5q-129 0 -202.5 -83t-73.5 -240v-545h-117z" />
<glyph unicode="i" horiz-adv-x="450" d="M166 1178v200h119v-200h-119zM168 0v963h115v-963h-115z" />
<glyph unicode="j" horiz-adv-x="473" d="M2 -289h39q78 0 112.5 30t34.5 116v1106h117v-1100q0 -145 -64.5 -201.5t-179.5 -56.5q-47 0 -59 6v100zM186 1180v198h121v-198h-121z" />
<glyph unicode="k" horiz-adv-x="937" d="M166 0v1378h117v-889l462 474h144l-371 -383l391 -580h-145l-330 498l-151 -154v-344h-117z" />
<glyph unicode="l" horiz-adv-x="505" d="M164 250v1128h115v-1134q0 -80 28.5 -112t95.5 -32h35v-100q-18 -6 -57 -6q-217 0 -217 256z" />
<glyph unicode="m" horiz-adv-x="1560" d="M166 0v963h117v-119q92 133 266 133q209 0 268 -168q94 168 295 168q299 0 299 -375v-602h-117v594q0 143 -48 208.5t-150 65.5q-119 0 -183.5 -86t-64.5 -250v-532h-117v592q0 276 -199 276q-119 0 -184 -83t-65 -240v-545h-117z" />
<glyph unicode="n" horiz-adv-x="1064" d="M166 0v963h117v-121q94 135 297 135q162 0 248.5 -102.5t86.5 -284.5v-590h-116v582q0 143 -63.5 214.5t-174.5 71.5q-129 0 -203.5 -81.5t-74.5 -233.5v-553h-117z" />
<glyph unicode="o" horiz-adv-x="1030" d="M96 489q0 217 113 352.5t305 135.5q197 0 308.5 -138.5t111.5 -349.5q0 -229 -110.5 -366t-309.5 -137t-308.5 137t-109.5 366zM213 489q0 -186 76 -290.5t225 -104.5q152 0 227.5 103.5t75.5 291.5q0 170 -79 274.5t-224 104.5q-141 0 -221 -102.5t-80 -276.5z" />
<glyph unicode="p" horiz-adv-x="1077" d="M166 -389v1352h117v-136q102 150 294.5 150t297 -135t104.5 -346q0 -236 -105.5 -373t-295.5 -137q-193 0 -295 159v-534h-117zM281 485q0 -188 73.5 -289.5t216.5 -101.5q147 0 219 107.5t72 292.5q0 172 -75.5 273t-215.5 101q-141 0 -215.5 -99.5t-74.5 -283.5z" />
<glyph unicode="q" horiz-adv-x="1077" d="M98 496q0 215 106.5 348t295 133t295.5 -150v136h116v-1352h-116v534q-102 -160 -295 -159q-188 0 -295 138.5t-107 371.5zM215 494q0 -190 73.5 -295t217.5 -105q147 0 219 103.5t72 288t-75 283.5t-216 99q-139 0 -215 -101t-76 -273z" />
<glyph unicode="r" horiz-adv-x="673" d="M166 0v963h117v-183q106 197 299 197q20 0 45 -4v-123h-25q-319 0 -319 -442v-408h-117z" />
<glyph unicode="s" horiz-adv-x="942" d="M96 293h117q10 -201 260 -201q115 0 182.5 48t67.5 120q0 106 -137 148q-41 12 -124 29.5t-122 27.5q-219 61 -219 237q0 121 88 198t258 77t263 -83t97 -224h-116q-10 201 -250 200q-109 0 -166 -45t-57 -116q0 -57 30.5 -84t102.5 -47q43 -12 122.5 -31t125.5 -31 q221 -61 221 -254q0 -123 -99.5 -199.5t-267.5 -76.5q-184 0 -278.5 81t-98.5 226z" />
<glyph unicode="t" horiz-adv-x="684" d="M76 856v107h164v415h116v-415h240v-107h-240v-582q0 -94 36 -134t118 -40h82v-100q-49 -6 -78 -6q-143 0 -208.5 66.5t-65.5 226.5v569h-164z" />
<glyph unicode="u" horiz-adv-x="1064" d="M150 375v588h116v-580q0 -143 63.5 -216t174.5 -73q127 0 202.5 82t75.5 234v553h117v-963h-117v127q-104 -141 -297 -141q-164 0 -249.5 102.5t-85.5 286.5z" />
<glyph unicode="v" horiz-adv-x="880" d="M31 963h123l284 -822l289 822h123l-346 -963h-129z" />
<glyph unicode="w" horiz-adv-x="1359" d="M45 963h123l219 -783l236 783h112l238 -781l219 781h121l-281 -963h-114l-238 772l-240 -772h-114z" />
<glyph unicode="x" horiz-adv-x="882" d="M25 0l356 500l-309 463h141l240 -361l254 361h139l-326 -461l338 -502h-141l-268 403l-281 -403h-143z" />
<glyph unicode="y" horiz-adv-x="880" d="M31 963h125l286 -820l283 820h125l-430 -1199q-55 -156 -236 -155q-55 0 -75 2v104l63 2q115 0 147 90l64 183z" />
<glyph unicode="z" horiz-adv-x="911" d="M86 0v111l602 745h-573v107h710v-109l-596 -745h594v-109h-737z" />
<glyph unicode="{" horiz-adv-x="587" d="M76 553v82q125 4 125 137v336q0 199 103.5 304.5t273.5 105.5v-97q-256 -2 -256 -317v-330q0 -61 -23 -114.5t-70 -65.5q47 -14 70 -66.5t23 -111.5v-338q0 -315 256 -318v-96q-170 0 -273.5 106.5t-103.5 305.5v340q0 133 -125 137z" />
<glyph unicode="|" horiz-adv-x="491" d="M188 -164v1684h115v-1684h-115z" />
<glyph unicode="}" horiz-adv-x="587" d="M10 -238q254 2 254 316v336q0 61 23.5 112.5t68.5 65.5q-47 14 -69.5 66.5t-22.5 113.5v332q0 315 -254 317v97q170 0 272.5 -106.5t102.5 -305.5v-334q0 -137 125 -137v-82q-125 -4 -125 -137v-340q0 -203 -104.5 -306.5t-270.5 -103.5v96z" />
<glyph unicode="~" horiz-adv-x="1067" d="M96 432q16 96 86 157.5t166 61.5q68 0 200 -59.5t177 -59.5q51 0 89 33t48 86h109q-14 -96 -81 -160.5t-165 -64.5q-57 0 -188 60.5t-189 60.5q-45 0 -87 -32t-52 -83h-113z" />
<glyph unicode="&#xa1;" horiz-adv-x="559" d="M188 768v195h181v-195h-181zM215 -414l16 992h95l16 -992h-127z" />
<glyph unicode="&#xa2;" horiz-adv-x="989" d="M96 481q0 213 98.5 343t270.5 145v161h102v-161q264 -27 336 -310h-119q-51 178 -217 201v-764q174 20 217 209h117q-57 -295 -334 -319v-150h-102v150q-174 14 -271.5 144t-97.5 351zM213 481q0 -356 252 -387v766q-121 -14 -186.5 -112.5t-65.5 -266.5z" />
<glyph unicode="&#xa3;" horiz-adv-x="1028" d="M55 119q113 2 113 141v748q0 170 107.5 283.5t287.5 113.5q156 0 256.5 -93t126.5 -245h-127q-47 217 -256 217q-135 0 -201.5 -80t-66.5 -198v-242h438v-121h-438v-369q0 -96 -47 -155h696v-119h-889v119z" />
<glyph unicode="&#xa5;" horiz-adv-x="1103" d="M20 1376h142l387 -694l389 694h145l-266 -463h182v-118h-247l-115 -201h362v-119h-385v-475h-127v475h-381v119h357l-115 201h-242v118h177z" />
<glyph unicode="&#xa6;" horiz-adv-x="501" d="M178 -162v713h115v-713h-115zM178 809v713h115v-713h-115z" />
<glyph unicode="&#xa7;" horiz-adv-x="1015" d="M113 676q0 82 41 149.5t118 102.5q-109 80 -108 205q0 121 88 197.5t258 76.5t263 -83t97 -224h-116q-10 201 -250 200q-109 0 -166 -45t-57 -116q0 -57 32.5 -90t100.5 -62l268 -104q221 -86 221 -262q0 -80 -45 -146.5t-127 -103.5q141 -82 141 -238q0 -123 -99 -199.5 t-267 -76.5q-184 0 -278.5 80.5t-98.5 226.5h117q10 -201 260 -201q115 0 182.5 48t67.5 120q0 117 -127 166l-297 121q-219 90 -219 258zM229 682q0 -55 32 -88t102 -64l219 -92q92 8 148 60.5t56 120.5q0 102 -137 155q-35 12 -108 41l-121 47q-92 -8 -141.5 -59 t-49.5 -121z" />
<glyph unicode="&#xa8;" horiz-adv-x="899" d="M199 1186v182h137v-182h-137zM563 1186v182h137v-182h-137z" />
<glyph unicode="&#xa9;" horiz-adv-x="1675" d="M102 684q0 297 210 507t505 210t506 -210t211 -507q0 -295 -211 -504t-506 -209t-505 209t-210 504zM199 684q0 -254 181 -436t437 -182t437.5 182t181.5 436q0 256 -182.5 437.5t-436.5 181.5q-256 0 -437 -182.5t-181 -436.5zM485 692q0 186 91.5 293t248.5 107 q256 0 320 -261h-103q-47 162 -217 162q-238 0 -237 -301q0 -309 237 -309q92 0 143.5 42t73.5 130h103q-57 -270 -320 -270q-160 0 -250 107t-90 300z" />
<glyph unicode="&#xaa;" horiz-adv-x="870" d="M102 1055q0 156 77 253t212 97q109 0 184 -76v64h105v-537q0 -59 53 -59h33v-95q-33 -4 -51 -4q-96 0 -125 90q-29 -41 -85 -68.5t-114 -27.5q-133 0 -211 99.5t-78 263.5zM207 1052.5q0 -116.5 47 -187t141 -70.5q92 0 140.5 67.5t48.5 186.5q0 258 -189 258 q-90 0 -139 -69t-49 -185.5z" />
<glyph unicode="&#xab;" horiz-adv-x="1089" d="M102 496v116l435 277v-117l-344 -219l344 -219v-117zM551 496v116l434 277v-117l-342 -219l342 -219v-117z" />
<glyph unicode="&#xac;" horiz-adv-x="1150" d="M96 487v119h955v-459h-119v340h-836z" />
<glyph unicode="&#xad;" horiz-adv-x="966" d="M168 498v114h629v-114h-629z" />
<glyph unicode="&#xae;" horiz-adv-x="1636" d="M102 684q0 297 209 507t506 210q295 0 505 -210t210 -507q0 -295 -210 -504t-505 -209t-505 209t-210 504zM199 684q0 -254 182 -436t436 -182q256 0 437.5 182t181.5 436t-181.5 436.5t-437.5 182.5t-437 -182.5t-181 -436.5zM567 307v756h307q115 0 183.5 -66.5 t68.5 -158.5q0 -72 -43 -129.5t-118 -81.5l178 -320h-111l-170 307h-196v-307h-99zM666 707h208q76 0 114 35.5t38 95.5q0 55 -38 93t-114 38h-208v-262z" />
<glyph unicode="&#xaf;" horiz-adv-x="851" d="M143 1214v109h564v-109h-564z" />
<glyph unicode="&#xb0;" horiz-adv-x="780" d="M119 1130.5q0 112.5 80 191.5t192.5 79t191.5 -79t79 -191.5t-79 -192.5t-191.5 -80t-192.5 80t-80 192.5zM215 1130q0 -74 52 -125t124 -51t124 51.5t52 124.5q0 72 -52 124.5t-124 52.5t-124 -52.5t-52 -124.5z" />
<glyph unicode="&#xb1;" horiz-adv-x="1167" d="M96 0v113h975v-113h-975zM96 541v118h426v314h121v-314h428v-118h-428v-287h-121v287h-426z" />
<glyph unicode="&#xb2;" horiz-adv-x="706" d="M113 1321q12 100 78.5 166.5t164.5 66.5q109 0 168.5 -65.5t59.5 -163.5q0 -119 -127 -250l-193 -190h330v-101h-471v97q215 205 266 262q88 98 88 180q0 57 -30.5 93t-90.5 36q-55 0 -92 -36t-45 -95h-106z" />
<glyph unicode="&#xb3;" horiz-adv-x="731" d="M113 987h108q12 -51 50 -83t94 -32q63 0 106 38t43 100q0 57 -36 90t-97 33l-80 2v92h72q55 0 88 31.5t33 80.5q0 55 -36 85t-93 30q-96 0 -123 -100h-107q16 90 80 145t150 55q106 0 169.5 -59t63.5 -158q0 -90 -74 -153q94 -63 94 -172t-72.5 -174.5t-180.5 -65.5 q-92 0 -160.5 58.5t-91.5 156.5z" />
<glyph unicode="&#xb4;" horiz-adv-x="708" d="M244 1112l209 264h157l-250 -264h-116z" />
<glyph unicode="&#xb5;" horiz-adv-x="1081" d="M164 -410v1373h119v-603q0 -131 67.5 -198.5t175.5 -67.5q127 0 198 81t71 235v553h116v-963h-116v129q-100 -141 -275 -141q-76 0 -141.5 29.5t-95.5 78.5v-506h-119z" />
<glyph unicode="&#x3bc;" horiz-adv-x="1081" d="M164 -410v1373h119v-603q0 -131 67.5 -198.5t175.5 -67.5q127 0 198 81t71 235v553h116v-963h-116v129q-100 -141 -275 -141q-76 0 -141.5 29.5t-95.5 78.5v-506h-119z" />
<glyph unicode="&#xb6;" horiz-adv-x="1376" d="M49 993q0 164 115 273.5t285 109.5h839v-121h-250v-1255h-129v1255h-329v-1255h-131v608q-174 0 -287 109.5t-113 275.5z" />
<glyph unicode="&#xb7;" horiz-adv-x="557" d="M188 528v195h181v-195h-181z" />
<glyph unicode="&#xb8;" horiz-adv-x="528" d="M92 -373l174 254h101l-131 -254h-144z" />
<glyph unicode="&#xb9;" horiz-adv-x="612" d="M133 1292v119l186 123h76v-752h-104v611z" />
<glyph unicode="&#xba;" horiz-adv-x="804" d="M102 1051q0 162 81 258t218 96q141 0 221 -97.5t80 -256.5q0 -164 -80.5 -260.5t-220.5 -96.5q-137 0 -218 96.5t-81 260.5zM209 1050.5q0 -120.5 50 -188t142.5 -67.5t144.5 66.5t52 189.5q0 106 -47 181t-150 75q-90 0 -141 -68t-51 -188.5z" />
<glyph unicode="&#xbb;" horiz-adv-x="1089" d="M102 217v117l342 219l-342 219v117l435 -277v-116zM551 217v117l342 219l-342 219v117l434 -277v-116z" />
<glyph unicode="&#xbc;" horiz-adv-x="1513" d="M182 1135v118l187 123h75v-751h-104v610zM391 0l639 1378h117l-637 -1378h-119zM866 172v76l316 502h106v-480h113v-98h-113v-174h-104v174h-318zM991 270h193v312z" />
<glyph unicode="&#xbd;" horiz-adv-x="1579" d="M182 1135v118l187 123h75v-751h-104v610zM391 0l639 1378h117l-637 -1378h-119zM985 535q12 100 78.5 166.5t165.5 66.5q109 0 168 -65.5t59 -163.5q0 -119 -127 -250l-192 -191h329v-100h-471v96q215 205 267 262q88 98 88 181q0 57 -31 93t-90 36q-55 0 -92 -36 t-45 -95h-107z" />
<glyph unicode="&#xbe;" horiz-adv-x="1574" d="M113 829h108q12 -51 50 -82.5t94 -31.5q63 0 106 38t43 99q0 57 -36 90t-97 33l-80 2v92h72q55 0 88 32t33 81q0 55 -36 84.5t-93 29.5q-96 0 -123 -100h-107q16 90 80 145.5t150 55.5q106 0 169.5 -59.5t63.5 -157.5q0 -90 -74 -154q94 -63 94 -172t-72.5 -174.5 t-180.5 -65.5q-92 0 -160.5 58.5t-91.5 156.5zM453 0l639 1378h116l-637 -1378h-118zM928 172v76l315 502h107v-480h112v-98h-112v-174h-105v174h-317zM1053 270h192v312z" />
<glyph unicode="&#xbf;" horiz-adv-x="948" d="M63 -53q0 96 49.5 174t141.5 172l68 69q94 98 94 193v63h116v-73q0 -123 -114 -244l-76 -80q-53 -55 -82 -90t-53.5 -86t-24.5 -98q0 -119 77 -195t198 -76q115 0 186.5 76t81.5 193h121q-12 -168 -118.5 -275.5t-270.5 -107.5q-170 0 -282 107.5t-112 277.5zM379 770 v193h180v-193h-180z" />
<glyph unicode="&#xc0;" horiz-adv-x="1222" d="M14 0l529 1378h137l528 -1378h-127l-151 393h-637l-150 -393h-129zM340 514h545l-273 715zM385 1786h158l209 -264h-117z" />
<glyph unicode="&#xc1;" horiz-adv-x="1222" d="M14 0l529 1378h137l528 -1378h-127l-151 393h-637l-150 -393h-129zM340 514h545l-273 715zM475 1522l209 264h158l-250 -264h-117z" />
<glyph unicode="&#xc2;" horiz-adv-x="1222" d="M14 0l529 1378h137l528 -1378h-127l-151 393h-637l-150 -393h-129zM322 1522l225 264h127l227 -264h-133l-158 180l-157 -180h-131zM340 514h545l-273 715z" />
<glyph unicode="&#xc3;" horiz-adv-x="1222" d="M14 0l529 1378h137l528 -1378h-127l-151 393h-637l-150 -393h-129zM252 1589q53 205 217 205q63 0 152.5 -50t132.5 -50q80 0 110 102h103q-16 -96 -72.5 -151.5t-144.5 -55.5q-59 0 -150.5 51.5t-136.5 51.5q-80 0 -107 -103h-104zM340 514h545l-273 715z" />
<glyph unicode="&#xc4;" horiz-adv-x="1222" d="M14 0l529 1378h137l528 -1378h-127l-151 393h-637l-150 -393h-129zM340 514h545l-273 715zM360 1595v183h138v-183h-138zM725 1595v183h137v-183h-137z" />
<glyph unicode="&#xc5;" horiz-adv-x="1222" d="M14 0l529 1378h137l528 -1378h-127l-151 393h-637l-150 -393h-129zM340 514h545l-273 715zM418 1704q0 80 57 136t137 56t136.5 -56t56.5 -136q0 -82 -56.5 -138.5t-136.5 -56.5t-137 56.5t-57 138.5zM502 1704q0 -45 31.5 -78t78.5 -33q45 0 77 33t32 78t-32 76.5 t-77 31.5t-77.5 -31.5t-32.5 -76.5z" />
<glyph unicode="&#xc6;" horiz-adv-x="1650" d="M4 0l526 1376h1033v-121h-680v-491h561v-121h-561v-524h682v-119h-809v393h-475l-150 -393h-127zM328 512h428v743h-146z" />
<glyph unicode="&#xc7;" horiz-adv-x="1314" d="M102 694q0 332 152 521.5t424 189.5q211 0 352 -112.5t184 -301.5h-131q-37 139 -144.5 218t-260.5 79q-217 0 -332 -155.5t-115 -438.5q0 -289 115 -446.5t332 -157.5q160 0 265.5 80t143.5 227h130q-41 -195 -185.5 -309.5t-353.5 -114.5q-276 0 -426 192.5t-150 528.5 zM477 -373l174 254h101l-131 -254h-144z" />
<glyph unicode="&#xc8;" horiz-adv-x="1177" d="M178 0v1378h914v-118h-787v-494h672v-119h-672v-528h787v-119h-914zM352 1786h158l209 -264h-117z" />
<glyph unicode="&#xc9;" horiz-adv-x="1177" d="M178 0v1378h914v-118h-787v-494h672v-119h-672v-528h787v-119h-914zM406 1522l208 264h158l-250 -264h-116z" />
<glyph unicode="&#xca;" horiz-adv-x="1177" d="M178 0v1378h914v-118h-787v-494h672v-119h-672v-528h787v-119h-914zM348 1522l225 264h127l228 -264h-133l-158 180l-158 -180h-131z" />
<glyph unicode="&#xcb;" horiz-adv-x="1177" d="M178 0v1378h914v-118h-787v-494h672v-119h-672v-528h787v-119h-914zM383 1595v183h137v-183h-137zM748 1595v183h137v-183h-137z" />
<glyph unicode="&#xcc;" horiz-adv-x="483" d="M8 1786h158l209 -264h-117zM178 0v1378h127v-1378h-127z" />
<glyph unicode="&#xcd;" horiz-adv-x="483" d="M125 1522l209 264h158l-250 -264h-117zM178 0v1378h127v-1378h-127z" />
<glyph unicode="&#xce;" horiz-adv-x="483" d="M-47 1522l225 264h127l227 -264h-133l-157 180l-158 -180h-131zM178 0v1378h127v-1378h-127z" />
<glyph unicode="&#xcf;" horiz-adv-x="483" d="M-6 1595v183h137v-183h-137zM178 0v1378h127v-1378h-127zM358 1595v183h138v-183h-138z" />
<glyph unicode="&#xd0;" horiz-adv-x="1368" d="M20 674v114h179v590h489q274 0 426 -185t152 -484q0 -336 -148.5 -522.5t-429.5 -186.5h-489v674h-179zM324 119h362q451 0 451 588q0 256 -116 403t-333 147h-364v-469h317v-114h-317v-555z" />
<glyph unicode="&#xd1;" horiz-adv-x="1329" d="M178 0v1378h141l705 -1169v1169h127v-1378h-141l-705 1171v-1171h-127zM305 1589q53 205 217 205q63 0 152.5 -50t132.5 -50q80 0 111 102h102q-16 -96 -72.5 -151.5t-144.5 -55.5q-59 0 -150.5 51.5t-136.5 51.5q-80 0 -106 -103h-105z" />
<glyph unicode="&#xd2;" horiz-adv-x="1355" d="M102 700q0 324 152 514.5t424 190.5t423.5 -195.5t151.5 -504.5q0 -342 -149.5 -537t-425.5 -195q-279 0 -427.5 194.5t-148.5 532.5zM231 700q0 -293 114 -451.5t333 -158.5q221 0 333.5 159t112.5 453q0 266 -114.5 426t-331.5 160q-215 0 -331 -154.5t-116 -433.5z M453 1786h157l209 -264h-117z" />
<glyph unicode="&#xd3;" horiz-adv-x="1355" d="M102 700q0 324 152 514.5t424 190.5t423.5 -195.5t151.5 -504.5q0 -342 -149.5 -537t-425.5 -195q-279 0 -427.5 194.5t-148.5 532.5zM231 700q0 -293 114 -451.5t333 -158.5q221 0 333.5 159t112.5 453q0 266 -114.5 426t-331.5 160q-215 0 -331 -154.5t-116 -433.5z M543 1522l209 264h157l-250 -264h-116z" />
<glyph unicode="&#xd4;" horiz-adv-x="1355" d="M102 700q0 324 152 514.5t424 190.5t423.5 -195.5t151.5 -504.5q0 -342 -149.5 -537t-425.5 -195q-279 0 -427.5 194.5t-148.5 532.5zM231 700q0 -293 114 -451.5t333 -158.5q221 0 333.5 159t112.5 453q0 266 -114.5 426t-331.5 160q-215 0 -331 -154.5t-116 -433.5z M387 1522l225 264h127l228 -264h-133l-158 180l-158 -180h-131z" />
<glyph unicode="&#xd5;" horiz-adv-x="1355" d="M102 700q0 324 152 514.5t424 190.5t423.5 -195.5t151.5 -504.5q0 -342 -149.5 -537t-425.5 -195q-279 0 -427.5 194.5t-148.5 532.5zM231 700q0 -293 114 -451.5t333 -158.5q221 0 333.5 159t112.5 453q0 266 -114.5 426t-331.5 160q-215 0 -331 -154.5t-116 -433.5z M319 1589q53 205 218 205q63 0 152 -50t132 -50q80 0 111 102h102q-16 -96 -72.5 -151.5t-144.5 -55.5q-59 0 -150.5 51.5t-136.5 51.5q-80 0 -106 -103h-105z" />
<glyph unicode="&#xd6;" horiz-adv-x="1355" d="M102 700q0 324 152 514.5t424 190.5t423.5 -195.5t151.5 -504.5q0 -342 -149.5 -537t-425.5 -195q-279 0 -427.5 194.5t-148.5 532.5zM231 700q0 -293 114 -451.5t333 -158.5q221 0 333.5 159t112.5 453q0 266 -114.5 426t-331.5 160q-215 0 -331 -154.5t-116 -433.5z M426 1595v183h137v-183h-137zM791 1595v183h137v-183h-137z" />
<glyph unicode="&#xd7;" horiz-adv-x="1097" d="M96 182l367 367l-367 366l84 86l369 -366l364 364l84 -84l-364 -364l366 -369l-84 -84l-368 367l-367 -367z" />
<glyph unicode="&#xd8;" horiz-adv-x="1355" d="M102 700q0 326 153 515.5t421 189.5q147 0 266 -62l64 125h127l-97 -192q217 -197 217 -574q0 -342 -150.5 -535.5t-426.5 -193.5q-141 0 -281 68l-67 -127h-127l102 195q-201 190 -201 591zM231 700q0 -315 134 -473l522 1006q-78 49 -211 49q-213 0 -329 -153 t-116 -429zM453 150q92 -55 223 -56q231 0 340.5 161t109.5 445q0 307 -149 463z" />
<glyph unicode="&#xd9;" horiz-adv-x="1353" d="M178 504v874h127v-870q0 -418 371 -418q373 0 373 418v870h127v-874q0 -266 -134.5 -398.5t-366 -132.5t-364.5 133.5t-133 397.5zM440 1786h158l209 -264h-117z" />
<glyph unicode="&#xda;" horiz-adv-x="1353" d="M178 504v874h127v-870q0 -418 371 -418q373 0 373 418v870h127v-874q0 -266 -134.5 -398.5t-366 -132.5t-364.5 133.5t-133 397.5zM530 1522l209 264h158l-250 -264h-117z" />
<glyph unicode="&#xdb;" horiz-adv-x="1353" d="M178 504v874h127v-870q0 -418 371 -418q373 0 373 418v870h127v-874q0 -266 -134.5 -398.5t-366 -132.5t-364.5 133.5t-133 397.5zM395 1522l226 264h127l227 -264h-133l-158 180l-158 -180h-131z" />
<glyph unicode="&#xdc;" horiz-adv-x="1353" d="M178 504v874h127v-870q0 -418 371 -418q373 0 373 418v870h127v-874q0 -266 -134.5 -398.5t-366 -132.5t-364.5 133.5t-133 397.5zM426 1595v183h137v-183h-137zM791 1595v183h137v-183h-137z" />
<glyph unicode="&#xdd;" horiz-adv-x="1071" d="M4 1378h143l392 -688l391 688h137l-469 -815v-563h-127v563zM362 1518l209 264h158l-250 -264h-117z" />
<glyph unicode="&#xde;" horiz-adv-x="1212" d="M178 0v1378h125v-270h383q203 0 316.5 -122t113.5 -288t-113.5 -286.5t-316.5 -120.5h-383v-291h-125zM303 410h383q145 0 223 86t78 202q0 119 -80 205t-221 86h-383v-579z" />
<glyph unicode="&#xdf;" horiz-adv-x="1128" d="M168 0v997q0 193 109.5 300.5t287.5 107.5q156 0 255.5 -95.5t99.5 -250.5q0 -86 -43 -159t-119 -109q115 -41 185.5 -142.5t70.5 -234.5q0 -199 -128 -309.5t-333 -110.5l-88 6v102h88q154 0 248 83t94 227q0 139 -84 223t-229 84h-52v106h23q109 0 178.5 70t69.5 166 q0 106 -61.5 169.5t-174.5 63.5q-127 0 -202.5 -75.5t-75.5 -214.5v-1004h-119z" />
<glyph unicode="&#xe0;" horiz-adv-x="1089" d="M96 487q0 215 108.5 352.5t293 137.5t282.5 -133v119h117v-762q0 -53 22.5 -77t73.5 -24h31v-100q-20 -6 -59 -6q-139 0 -172 145q-106 -154 -301 -153q-182 0 -289 138t-107 363zM213 485q0 -182 76 -286.5t209 -104.5q141 0 217 100.5t76 282.5q0 190 -74 290.5 t-213 100.5q-135 0 -213 -105.5t-78 -277.5zM311 1376h158l209 -264h-117z" />
<glyph unicode="&#xe1;" horiz-adv-x="1089" d="M96 487q0 215 108.5 352.5t293 137.5t282.5 -133v119h117v-762q0 -53 22.5 -77t73.5 -24h31v-100q-20 -6 -59 -6q-139 0 -172 145q-106 -154 -301 -153q-182 0 -289 138t-107 363zM213 485q0 -182 76 -286.5t209 -104.5q141 0 217 100.5t76 282.5q0 190 -74 290.5 t-213 100.5q-135 0 -213 -105.5t-78 -277.5zM401 1112l209 264h158l-250 -264h-117z" />
<glyph unicode="&#xe2;" horiz-adv-x="1089" d="M96 487q0 215 108.5 352.5t293 137.5t282.5 -133v119h117v-762q0 -53 22.5 -77t73.5 -24h31v-100q-20 -6 -59 -6q-139 0 -172 145q-106 -154 -301 -153q-182 0 -289 138t-107 363zM213 485q0 -182 76 -286.5t209 -104.5q141 0 217 100.5t76 282.5q0 190 -74 290.5 t-213 100.5q-135 0 -213 -105.5t-78 -277.5zM246 1112l225 264h127l227 -264h-133l-157 180l-158 -180h-131z" />
<glyph unicode="&#xe3;" horiz-adv-x="1089" d="M96 487q0 215 108.5 352.5t293 137.5t282.5 -133v119h117v-762q0 -53 22.5 -77t73.5 -24h31v-100q-20 -6 -59 -6q-139 0 -172 145q-106 -154 -301 -153q-182 0 -289 138t-107 363zM182 1184q53 205 217 205q63 0 152.5 -50.5t132.5 -50.5q80 0 111 103h102 q-16 -96 -72.5 -151.5t-144.5 -55.5q-59 0 -150.5 51t-136.5 51q-80 0 -106 -102h-105zM213 485q0 -182 76 -286.5t209 -104.5q141 0 217 100.5t76 282.5q0 190 -74 290.5t-213 100.5q-135 0 -213 -105.5t-78 -277.5z" />
<glyph unicode="&#xe4;" horiz-adv-x="1089" d="M96 487q0 215 108.5 352.5t293 137.5t282.5 -133v119h117v-762q0 -53 22.5 -77t73.5 -24h31v-100q-20 -6 -59 -6q-139 0 -172 145q-106 -154 -301 -153q-182 0 -289 138t-107 363zM213 485q0 -182 76 -286.5t209 -104.5q141 0 217 100.5t76 282.5q0 190 -74 290.5 t-213 100.5q-135 0 -213 -105.5t-78 -277.5zM289 1186v182h137v-182h-137zM653 1186v182h138v-182h-138z" />
<glyph unicode="&#xe5;" horiz-adv-x="1089" d="M96 487q0 215 108.5 352.5t293 137.5t282.5 -133v119h117v-762q0 -53 22.5 -77t73.5 -24h31v-100q-20 -6 -59 -6q-139 0 -172 145q-106 -154 -301 -153q-182 0 -289 138t-107 363zM213 485q0 -182 76 -286.5t209 -104.5q141 0 217 100.5t76 282.5q0 190 -74 290.5 t-213 100.5q-135 0 -213 -105.5t-78 -277.5zM336 1323q0 80 57.5 136.5t137 56.5t136 -56.5t56.5 -136.5q0 -82 -56.5 -138.5t-136 -56.5t-137 56.5t-57.5 138.5zM420 1323q0 -45 31.5 -78t78.5 -33q45 0 77 33t32 78t-32 77t-77 32t-77.5 -32t-32.5 -77z" />
<glyph unicode="&#xe6;" horiz-adv-x="1654" d="M104 274q0 113 70 184.5t188 88.5q88 12 383 16v51q0 256 -235 256q-119 0 -179.5 -37.5t-78.5 -115.5h-123q25 131 122 195.5t253 64.5q244 0 321 -170q106 170 330 170q207 0 309.5 -126t102.5 -349l-2 -49h-701q6 -176 84 -267.5t213 -91.5q100 0 171 49.5t102 132.5 h118q-39 -141 -139 -215.5t-252 -74.5q-236 0 -344 188q-57 -92 -141 -140t-223 -48q-147 0 -248 73.5t-101 214.5zM221 276q0 -94 70.5 -139t177.5 -45q276 0 276 295v74q-233 0 -346 -12q-84 -10 -131 -54.5t-47 -118.5zM864 557h582q-6 143 -78 227t-213 84 q-131 0 -206 -85t-85 -226z" />
<glyph unicode="&#xe7;" horiz-adv-x="989" d="M94 485q0 229 111.5 360.5t304.5 131.5q160 0 260 -83t129 -226h-121q-45 201 -268 200q-145 0 -222 -98t-77 -285q0 -391 299 -391q219 0 268 199h119q-70 -307 -387 -307q-195 0 -305.5 131.5t-110.5 367.5zM301 -373l174 254h100l-131 -254h-143z" />
<glyph unicode="&#xe8;" horiz-adv-x="1015" d="M96 477q0 238 110.5 369t303.5 131q207 0 309.5 -124t102.5 -347l-2 -49h-705q6 -176 86 -269.5t215 -93.5q100 0 171 49.5t101 132.5h119q-39 -141 -139 -215.5t-252 -74.5q-193 0 -306.5 132t-113.5 359zM217 561h584q-14 307 -291 307q-131 0 -207 -83t-86 -224z M281 1376h157l209 -264h-117z" />
<glyph unicode="&#xe9;" horiz-adv-x="1015" d="M96 477q0 238 110.5 369t303.5 131q207 0 309.5 -124t102.5 -347l-2 -49h-705q6 -176 86 -269.5t215 -93.5q100 0 171 49.5t101 132.5h119q-39 -141 -139 -215.5t-252 -74.5q-193 0 -306.5 132t-113.5 359zM217 561h584q-14 307 -291 307q-131 0 -207 -83t-86 -224z M371 1112l209 264h157l-250 -264h-116z" />
<glyph unicode="&#xea;" horiz-adv-x="1015" d="M96 477q0 238 110.5 369t303.5 131q207 0 309.5 -124t102.5 -347l-2 -49h-705q6 -176 86 -269.5t215 -93.5q100 0 171 49.5t101 132.5h119q-39 -141 -139 -215.5t-252 -74.5q-193 0 -306.5 132t-113.5 359zM215 1112l225 264h127l228 -264h-133l-158 180l-158 -180h-131z M217 561h584q-14 307 -291 307q-131 0 -207 -83t-86 -224z" />
<glyph unicode="&#xeb;" horiz-adv-x="1015" d="M96 477q0 238 110.5 369t303.5 131q207 0 309.5 -124t102.5 -347l-2 -49h-705q6 -176 86 -269.5t215 -93.5q100 0 171 49.5t101 132.5h119q-39 -141 -139 -215.5t-252 -74.5q-193 0 -306.5 132t-113.5 359zM217 561h584q-14 307 -291 307q-131 0 -207 -83t-86 -224z M254 1186v182h137v-182h-137zM619 1186v182h137v-182h-137z" />
<glyph unicode="&#xec;" horiz-adv-x="454" d="M-68 1376h158l209 -264h-117zM168 0v963h119v-963h-119z" />
<glyph unicode="&#xed;" horiz-adv-x="454" d="M150 1112l208 264h158l-250 -264h-116zM168 0v963h119v-963h-119z" />
<glyph unicode="&#xee;" horiz-adv-x="454" d="M-61 1112l225 264h127l227 -264h-133l-158 180l-157 -180h-131zM168 0v963h119v-963h-119z" />
<glyph unicode="&#xef;" horiz-adv-x="454" d="M-23 1186v182h138v-182h-138zM168 0v963h119v-963h-119zM342 1186v182h137v-182h-137z" />
<glyph unicode="&#xf0;" horiz-adv-x="1021" d="M96 479q0 231 111.5 363.5t302.5 132.5q150 0 244 -82q-45 170 -146 272l-91 -54q-60 -36 -66 -40l-50 86q14 8 39 24l45 27l39 23q-98 61 -227 61h-84v105q37 4 86 4q190 0 330 -107l192 115q8 -12 24.5 -42t26.5 -44l-165 -100q113 -127 165 -322.5t52 -408.5 q0 -229 -104.5 -368.5t-309.5 -139.5q-193 0 -303.5 133t-110.5 362zM213 479q0 -186 77 -286.5t220 -100.5q147 0 222 103.5t75 293.5q0 178 -76 277.5t-221 99.5q-141 0 -219 -99.5t-78 -287.5z" />
<glyph unicode="&#xf1;" horiz-adv-x="1064" d="M166 0v963h117v-121q94 135 297 135q162 0 248.5 -102.5t86.5 -284.5v-590h-116v582q0 143 -63.5 214.5t-174.5 71.5q-129 0 -203.5 -81.5t-74.5 -233.5v-553h-117zM170 1184q53 205 217 205q63 0 152.5 -50.5t132.5 -50.5q80 0 110 103h103q-16 -96 -72.5 -151.5 t-144.5 -55.5q-59 0 -150.5 51t-136.5 51q-80 0 -107 -102h-104z" />
<glyph unicode="&#xf2;" horiz-adv-x="1030" d="M96 489q0 217 113 352.5t305 135.5q197 0 308.5 -138.5t111.5 -349.5q0 -229 -110.5 -366t-309.5 -137t-308.5 137t-109.5 366zM213 489q0 -186 76 -290.5t225 -104.5q152 0 227.5 103.5t75.5 291.5q0 170 -79 274.5t-224 104.5q-141 0 -221 -102.5t-80 -276.5zM289 1376 h157l209 -264h-116z" />
<glyph unicode="&#xf3;" horiz-adv-x="1030" d="M96 489q0 217 113 352.5t305 135.5q197 0 308.5 -138.5t111.5 -349.5q0 -229 -110.5 -366t-309.5 -137t-308.5 137t-109.5 366zM213 489q0 -186 76 -290.5t225 -104.5q152 0 227.5 103.5t75.5 291.5q0 170 -79 274.5t-224 104.5q-141 0 -221 -102.5t-80 -276.5zM379 1112 l209 264h157l-249 -264h-117z" />
<glyph unicode="&#xf4;" horiz-adv-x="1030" d="M96 489q0 217 113 352.5t305 135.5q197 0 308.5 -138.5t111.5 -349.5q0 -229 -110.5 -366t-309.5 -137t-308.5 137t-109.5 366zM213 489q0 -186 76 -290.5t225 -104.5q152 0 227.5 103.5t75.5 291.5q0 170 -79 274.5t-224 104.5q-141 0 -221 -102.5t-80 -276.5zM223 1112 l226 264h126l228 -264h-133l-158 180l-158 -180h-131z" />
<glyph unicode="&#xf5;" horiz-adv-x="1030" d="M96 489q0 217 113 352.5t305 135.5q197 0 308.5 -138.5t111.5 -349.5q0 -229 -110.5 -366t-309.5 -137t-308.5 137t-109.5 366zM158 1184q53 205 217 205q63 0 152 -50.5t132 -50.5q80 0 111 103h102q-16 -96 -72.5 -151.5t-144.5 -55.5q-59 0 -150 51t-136 51 q-80 0 -107 -102h-104zM213 489q0 -186 76 -290.5t225 -104.5q152 0 227.5 103.5t75.5 291.5q0 170 -79 274.5t-224 104.5q-141 0 -221 -102.5t-80 -276.5z" />
<glyph unicode="&#xf6;" horiz-adv-x="1030" d="M96 489q0 217 113 352.5t305 135.5q197 0 308.5 -138.5t111.5 -349.5q0 -229 -110.5 -366t-309.5 -137t-308.5 137t-109.5 366zM213 489q0 -186 76 -290.5t225 -104.5q152 0 227.5 103.5t75.5 291.5q0 170 -79 274.5t-224 104.5q-141 0 -221 -102.5t-80 -276.5zM262 1186 v182h137v-182h-137zM627 1186v182h137v-182h-137z" />
<glyph unicode="&#xf7;" horiz-adv-x="1169" d="M96 489v121h977v-121h-977zM496 59v193h180v-193h-180zM496 831v193h180v-193h-180z" />
<glyph unicode="&#xf8;" horiz-adv-x="1028" d="M96 485q0 221 115 354.5t303 133.5q98 0 182 -39l60 104h110l-88 -159q156 -139 156 -394q0 -236 -112.5 -369.5t-307.5 -133.5q-106 0 -201 47l-51 -88h-110l81 145q-137 133 -137 399zM213 485q0 -182 80 -295l350 648q-53 27 -129 26q-141 0 -221 -99.5t-80 -279.5z M367 125q59 -33 147 -33q152 0 227.5 103.5t75.5 290t-94 290.5z" />
<glyph unicode="&#xf9;" horiz-adv-x="1064" d="M150 375v588h116v-580q0 -143 63.5 -216t174.5 -73q127 0 202.5 82t75.5 234v553h117v-963h-117v127q-104 -141 -297 -141q-164 0 -249.5 102.5t-85.5 286.5zM317 1376h158l209 -264h-117z" />
<glyph unicode="&#xfa;" horiz-adv-x="1064" d="M150 375v588h116v-580q0 -143 63.5 -216t174.5 -73q127 0 202.5 82t75.5 234v553h117v-963h-117v127q-104 -141 -297 -141q-164 0 -249.5 102.5t-85.5 286.5zM360 1112l209 264h158l-250 -264h-117z" />
<glyph unicode="&#xfb;" horiz-adv-x="1064" d="M150 375v588h116v-580q0 -143 63.5 -216t174.5 -73q127 0 202.5 82t75.5 234v553h117v-963h-117v127q-104 -141 -297 -141q-164 0 -249.5 102.5t-85.5 286.5zM238 1112l225 264h127l227 -264h-133l-158 180l-157 -180h-131z" />
<glyph unicode="&#xfc;" horiz-adv-x="1064" d="M150 375v588h116v-580q0 -143 63.5 -216t174.5 -73q127 0 202.5 82t75.5 234v553h117v-963h-117v127q-104 -141 -297 -141q-164 0 -249.5 102.5t-85.5 286.5zM276 1186v182h138v-182h-138zM641 1186v182h137v-182h-137z" />
<glyph unicode="&#xfd;" horiz-adv-x="868" d="M25 963h125l286 -820l283 820h125l-430 -1199q-55 -156 -236 -155q-55 0 -76 2v104l64 2q115 0 147 90l64 183zM260 1112l209 264h158l-250 -264h-117z" />
<glyph unicode="&#xfe;" horiz-adv-x="1073" d="M166 -410v1788h117v-553q102 152 292 152q193 0 297.5 -135t104.5 -346q0 -236 -105.5 -373t-296 -137t-292.5 153v-549h-117zM279 485q0 -389 290 -389q147 0 219 106.5t72 291.5q0 172 -76.5 273t-214.5 101q-141 0 -215.5 -99.5t-74.5 -283.5z" />
<glyph unicode="&#xff;" horiz-adv-x="868" d="M25 963h125l286 -820l283 820h125l-430 -1199q-55 -156 -236 -155q-55 0 -76 2v104l64 2q115 0 147 90l64 183zM184 1186v182h138v-182h-138zM549 1186v182h137v-182h-137z" />
<glyph unicode="&#x152;" horiz-adv-x="1908" d="M102 696q0 326 152 516.5t422 190.5q199 0 340 -111v84h825v-119h-698v-493h583v-121h-583v-524h698v-119h-825v76q-135 -104 -340 -105q-276 0 -425 194.5t-149 530.5zM231 696q0 -291 114 -448.5t331 -157.5q223 0 340 164v862q-119 164 -340 164q-213 0 -329 -152.5 t-116 -431.5z" />
<glyph unicode="&#x153;" horiz-adv-x="1722" d="M96 489q0 221 115 354.5t303 133.5q125 0 216 -62.5t138 -175.5q92 236 355 236q221 0 314 -137.5t93 -386.5h-698q12 -354 291 -355q205 0 262 180h119q-80 -291 -381 -290q-260 0 -355 235q-90 -236 -354 -235q-197 0 -307.5 135t-110.5 368zM213 487q0 -190 77 -290.5 t224.5 -100.5t222 103.5t74.5 287.5q0 174 -78 277.5t-219 103.5t-221 -100.5t-80 -280.5zM932 559h581q-16 309 -290 309q-131 0 -206 -84t-85 -225z" />
<glyph unicode="&#x178;" horiz-adv-x="1071" d="M4 1378h143l392 -688l391 688h137l-469 -815v-563h-127v563zM285 1591v183h137v-183h-137zM649 1591v183h137v-183h-137z" />
<glyph unicode="&#x2c6;" horiz-adv-x="923" d="M172 1112l225 264h127l228 -264h-134l-157 180l-158 -180h-131z" />
<glyph unicode="&#x2dc;" horiz-adv-x="960" d="M123 1184q53 205 217 205q63 0 152.5 -50.5t132.5 -50.5q80 0 110 103h103q-16 -96 -72.5 -151.5t-144.5 -55.5q-59 0 -150.5 51t-136.5 51q-80 0 -107 -102h-104z" />
<glyph unicode="&#x2013;" horiz-adv-x="1232" d="M147 502v112h936v-112h-936z" />
<glyph unicode="&#x2014;" horiz-adv-x="1566" d="M0 502v114h1567v-114h-1567z" />
<glyph unicode="&#x2018;" horiz-adv-x="520" d="M168 913v228q0 109 55.5 169t149.5 66v-80q-63 -4 -87 -50t-24 -140h90v-193h-184z" />
<glyph unicode="&#x2019;" horiz-adv-x="530" d="M147 913v80q66 2 88.5 49.5t22.5 141.5h-90v192h184v-225q0 -109 -55.5 -169.5t-149.5 -68.5z" />
<glyph unicode="&#x201a;" horiz-adv-x="522" d="M147 -188q66 2 88.5 48t22.5 140h-90v193h184v-224q0 -109 -55 -170t-150 -69v82z" />
<glyph unicode="&#x201c;" horiz-adv-x="841" d="M168 913v228q0 109 55.5 169t149.5 66v-80q-63 -4 -87 -50t-24 -140h90v-193h-184zM487 913v228q0 223 207 235v-80q-63 -4 -87.5 -50t-24.5 -140h92v-193h-187z" />
<glyph unicode="&#x201d;" horiz-adv-x="841" d="M147 913v80q66 2 88.5 49.5t22.5 141.5h-90v192h184v-225q0 -109 -55.5 -169.5t-149.5 -68.5zM467 913v80q66 2 88.5 48t22.5 143h-91v192h185v-225q0 -109 -55.5 -169.5t-149.5 -68.5z" />
<glyph unicode="&#x201e;" horiz-adv-x="841" d="M147 -188q66 2 88.5 48t22.5 140h-90v193h184v-224q0 -109 -55 -170t-150 -69v82zM467 -188q66 2 88.5 48t22.5 140h-91v193h185v-224q0 -109 -55.5 -170t-149.5 -69v82z" />
<glyph unicode="&#x2022;" horiz-adv-x="667" d="M188 700q0 59 43 102.5t102.5 43.5t102.5 -43t43 -103q0 -61 -43 -103t-102.5 -42t-102.5 42t-43 103z" />
<glyph unicode="&#x2026;" horiz-adv-x="1689" d="M188 0v193h181v-193h-181zM743 0v193h181v-193h-181zM1319 0v193h180v-193h-180z" />
<glyph unicode="&#x2039;" horiz-adv-x="638" d="M102 496v116l435 277v-117l-344 -219l344 -219v-117z" />
<glyph unicode="&#x203a;" horiz-adv-x="638" d="M102 217v117l342 219l-342 219v117l435 -277v-116z" />
<glyph unicode="&#x20ac;" horiz-adv-x="1202" d="M45 475v119h201q-4 61 -4 98q0 29 4 103h-201v118h215q33 219 144.5 356.5t312.5 137.5q168 0 274.5 -98.5t136.5 -270.5h-127q-51 248 -284 248q-279 0 -334 -373h479v-118h-491q-4 -70 -4 -103q0 -37 4 -98h493v-119h-485q55 -383 338 -383q233 0 284 246h127 q-31 -170 -135 -266.5t-276 -96.5q-201 0 -314.5 133.5t-146.5 366.5h-211z" />
<glyph unicode="&#x2122;" horiz-adv-x="1372" d="M102 1284v94h469v-94h-186v-563h-98v563h-185zM653 721v657h101l196 -401l195 401h98v-657h-96v448l-152 -311h-92l-149 311v-448h-101z" />
<glyph unicode="&#xe000;" horiz-adv-x="965" d="M0 965h965v-965h-965v965z" />
<glyph unicode="&#xfb01;" horiz-adv-x="1128" d="M76 856v107h164v135q0 158 64.5 225.5t205.5 67.5q41 0 90 -7v-102h-88q-84 0 -120 -39t-36 -133v-147h238v-107h-238v-856h-116v856h-164zM842 1178v200h119v-200h-119zM844 0v963h114v-963h-114z" />
<glyph unicode="&#xfb02;" horiz-adv-x="1210" d="M76 856v107h164v135q0 158 64.5 225.5t205.5 67.5q41 0 90 -7v-102h-88q-84 0 -120 -39t-36 -133v-147h238v-107h-238v-856h-116v856h-164zM846 250v1128h115v-1134q0 -80 28.5 -112t95.5 -32h35v-100q-18 -6 -57 -6q-217 0 -217 256z" />
<glyph unicode="&#xfb03;" horiz-adv-x="1773" d="M76 856v107h164v135q0 158 64.5 225.5t205.5 67.5q41 0 90 -7v-102h-88q-84 0 -120 -39t-36 -133v-147h238v-107h-238v-856h-116v856h-164zM737 856v107h164v135q0 158 64.5 225.5t205.5 67.5q41 0 91 -7v-102h-88q-84 0 -120 -39t-36 -133v-147h237v-107h-237v-856h-117 v856h-164zM1489 1178v200h119v-200h-119zM1491 0v963h115v-963h-115z" />
<glyph unicode="&#xfb04;" horiz-adv-x="1828" d="M76 856v107h164v135q0 158 64.5 225.5t205.5 67.5q41 0 90 -7v-102h-88q-84 0 -120 -39t-36 -133v-147h238v-107h-238v-856h-116v856h-164zM737 856v107h164v135q0 158 64.5 225.5t205.5 67.5q41 0 91 -7v-102h-88q-84 0 -120 -39t-36 -133v-147h237v-107h-237v-856h-117 v856h-164zM1487 250v1128h115v-1134q0 -80 28.5 -112t95.5 -32h35v-100q-18 -6 -57 -6q-217 0 -217 256z" />
<glyph horiz-adv-x="532" />
</font>
</defs>
</svg>
